<!--
Font Awesome Free 5.0.0 by @fontawesome - http://fontawesome.com
License - http://fontawesome.com/license (Icons: CC BY 4.0, Fonts: SIL OFL 1.1, Code: MIT License)
-->
<?xml version="1.0" standalone="no"?> 
<!DOCTYPE svg PUBLIC "-//W3C//DTD SVG 1.1//EN" "http://www.w3.org/Graphics/SVG/1.1/DTD/svg11.dtd" >
<svg xmlns="http://www.w3.org/2000/svg">
<defs>
  <font id="fontawesome-free" horiz-adv-x="640.4">
    <font-face font-family="Font Awesome 5 Brands"
      units-per-em="512" ascent="448"
      descent="64"
      font-weight="400"
      font-style="Regular" />
    <missing-glyph horiz-adv-x="0" />
    <glyph glyph-name="500px"
      unicode="&#xF26E;"
      horiz-adv-x="448" d=" M103.3 103.7C96.8 117.9 96.4 122 110.7 126.8C136.3 134.8 118.7 117.6 153.9 77.6H154.2V171.5C155.4 221.7 198.2 263.7 251.9000000000001 263.7C305.8 263.7 349.6 220.2 349.6 166.9C349.6 103.5 288.8 53.7 221.1 73.6C210.6 77.8 219 105.3 229.6 102.2C282.6 102.2 319 112.3 319 166.6C319 227.6 241.9 256.2000000000001 202.1 211.2C178.6 184.8 184.5 169.1 184.5 53.6C235.2 22.6 302.8 31.6 344.9 73.7000000000001C369.7 98.5000000000001 383.4 131.7000000000001 383.4 166.7000000000001C383.4 201.9 369.6 234.9000000000001 344.6 260.0000000000001C319.8 284.8000000000001 286.8 298.5000000000001 251.3 298.5000000000001S182.5 284.7000000000001 157.8 260.0000000000001C157.5 259.7000000000001 141.8 243.5000000000001 136.6 236.1000000000001L136.1 235.5000000000001C132.8 230.8000000000001 129.8 226.4000000000001 116 229.4000000000001C109.1 231.1000000000001 101.7 235.2000000000001 101.7 241.2000000000001V428C101.7 433 105.6 438.5 112.2 438.5H353.5C361.8 438.5 361.8 426.9 361.8 423.4C361.8 419.5 361.8 408.3 353.5 408.3H130.3V275.4H130.6C234.8 385.2 413.4000000000001 311.4 413.4000000000001 166.5C413.4000000000001 -11.6 168.6 -53.8 103.3 103.7zM166.6 364.5C166.1 360.3 171.2 340 181.2 343.9C306 391.4 384 303.5 390.6 303.5C395.4000000000001 303.5 413.4000000000001 318.8 404.9000000000001 326.3C311.7000000000001 415.3 170.4 383.3 166.6 364.5zM393 33.3C283 -76.6 94 -27.5 61 137.5C61 149.7 30.6 144.9 32.1 134.2C56.1 -39.2 278.1 -122.7 413.7000000000001 12.9C420.6 20.7 401.1 41.3 393.0000000000001 33.3zM213.6 141.4C213.6 137.4 217.9 134.1 219.1 132.9C222.1 129.9 225.2 128.5 227.6 128.5C231.4 128.5 230.2 128.3 249.9 148C269.5 128.7 269 128.5 272.2 128.5C277.6 128.5 290.7 138.9 282.9 146.7L265.6 164L283.8 182.2C290.1 189 273.7 204 267.6 197.9L249.7 180C231.1 198.8 231.3 199.5 228.2 199.5C223.2 199.5 210.2 187.8 215.8 182.2L234 164C215.9 146.1 213.6 144.8 213.6 141.4z" />
    <glyph glyph-name="accessible-icon"
      unicode="&#xF368;"
      horiz-adv-x="448" d=" M423.9 192.2L411 34.9C407.7 -5.8 347.1 -0.2 350.4 39.8L360.4 162.3L319.3 160C329.4 139.3 335.1 116.1 335.1 91.4999999999999C335.1 50.3 319 12.8 292.8 -15.0000000000001L253.5 24.3C311.3999999999999 87.9999999999999 266.6 191.5 179.5 191.5C153.5999999999999 191.5 130 181.6 112.2999999999999 165.5L73 204.8C95 225.5 123.1 239.9 154.4 245L229.7 330.7L187.1 355.5L135.5 309.5C105.5 282.7 64.9 328 95 354.9L163 415.6C172.8 424.4000000000001 187.1 425.8 198.5 419.2C198.5 419.2 337.8 338.3 338 338.1C354.2 328 358.7 302.1 344.1 285.5L285.7 219L391.8 224.9C410.3 226 425.4 210.5 423.9 192.2zM359 346.2C387.1 346.2 409.9 369 409.9 397.1C409.9 425.2 387.1 448 359 448C330.9 448 308.1 425.2 308.1 397.1C308.1 369 330.9000000000001 346.2 359 346.2zM179.6 -8.5C99 -8.5 52.2 82.1 96.9 147.6L57.2 187.3C36.4 161 24 127.7 24 91.6C24 -39.1 174.7 -109.7999999999999 275.4 -30.9L235.7 8.8C219.7 -2.1 200.4 -8.5 179.6 -8.5z" />
    <glyph glyph-name="accusoft"
      unicode="&#xF369;"
      horiz-adv-x="640" d=" M482.2 75.9C476.5 82.8 250 373 242.3 382.5C228.6 399.7 242.3 399.3 261.5 399.4C271.2 399.5 367.8 400 378 400C402.1 400.1 406.7 399.4 416.4 387.2C418.5 384.5 621.5 141.4 623.5999999999999 138.9C629.0999999999999 132.2 638.8 119.8 630.8 115.5C628.4 114.2 516.1999999999999 67.8 513 66.6C502.9 62.6 495.5 59.8 482.2 75.9M596.9 81.5000000000001S481.9 31.1000000000001 479.4 29.9C463.4 22.6 452.5 33.1 442.7 44.5000000000001L385.6 118.5000000000001C380.2 119.4 325.2 128.1000000000001 320.3 127.8000000000001C317.2 127.6000000000001 310.7 127.0000000000001 305.9 124.9000000000001C301 122.8000000000001 160.7 72.1000000000001 155.7 70.2000000000001C150.6 68.2000000000001 144.3 66.6000000000001 144.6 62.6000000000001C144.8 60.1000000000001 146.6 60.0000000000001 149.2 59.1000000000001C151.9 58.3000000000001 450.1 -8.4999999999999 457.2 -9.9999999999999C472.8 -13.2999999999999 495.7 -20.4999999999999 510.8 -11.6999999999999C512.9 -10.4999999999999 634.6 64.7000000000002 636.6 66.1000000000001C642 70.1000000000001 640.9 72.9000000000002 634.9 74.3000000000001C632.6 74.6000000000001 610.3 79.0000000000001 596.9 81.5000000000001M270.9 262.8000000000002S258.9 261.2000000000002 245.9 247.7000000000002C236.9 238.4000000000001 3.8 8.6000000000001 2.5 6.8000000000001C-4.5 -3.1999999999999 4.1 1e-13 18.2 5.1000000000001C19 5.1000000000001 132.7 41.7000000000002 132.7 41.7000000000002C133.2 42.3000000000002 132.6 41.8000000000002 133.3 42.3000000000002C132.9 47.4000000000002 132.5 68.5000000000002 132.3 70.0000000000002C131.7 75.2000000000002 134.5 76.9000000000002 139.3 78.9000000000002L231.9 112.7000000000002C232.5 113.5000000000002 320.4 194.4000000000002 322.1 196.0000000000002V197.0000000000002L270.9 262.8000000000002" />
    <glyph glyph-name="adn"
      unicode="&#xF170;"
      horiz-adv-x="496" d=" M248 280.5L312.9 181.7H183.1L248 280.5zM496 192C496 55.1 384.9 -56 248 -56S0 55.1 0 192S111.1 440 248 440S496 328.9 496 192zM396.2 109.3L248 332.5L99.8 109.3H130.2L163.8 161H332.4L366 109.3H396.2z" />
    <glyph glyph-name="adversal"
      unicode="&#xF36A;"
      horiz-adv-x="512" d=" M482.1 416H28.7C5.8 416 0 410.1 0 387.1V-3.1C0 -26.4 5.8 -32 28.7 -32H482.1C506.4999999999999 -32 511.9999999999999 -26.8 511.9999999999999 -2.3V385.8C511.9999999999999 410.4 506.6 416 482.1 416zM178.4 227.7C150.9 247.9 106.3 236.4 94.2 204.3C89.9 193.2 84.9 194.8 76.7 196C67 197.5 59.5 199.2 54.2 201.5C25.4 212.9 62.8 256.8 79.1 265.8C120.2 287.2 162.5 288 204.4 270.6C245.3 253.8 238.9 211.4 238.9 142.1C241.6 116.3 234.6 83.8 248.2 53.3C250.1 48.9 248.6 45.4 245.5 42.6C237.1 35.9 206.2 40.4 198.9 49.9999999999999C197 52.1999999999999 197.1 53.6 195 56.1999999999999C191.4 60.0999999999999 187.7 58.3999999999999 183.1 55.1999999999999C125.7 18.8 42.8 33.8 36.1 98.4999999999999C33 127.8 48.5 155.6 75.7 169.5C113.9 189 187.9 181.3 189.7 200.4C190.8 210.5999999999999 187.8 220.5 178.4 227.7zM465.1 5.7C465.1 -9.4 454 -4.2 447.3 -4.2H52.4C45 -4.2 34.2 -9 34.6 6.5C35 20.4 45.1 15.6 51.7 15.6C184 16 316.2 16 448.5 15.6C455.3 15.6 465.1 20 465.1 5.7zM468.9 346.2V55.2C468.9 49.5 468.2 41.3 460.8 41.3C448.4000000000001 41.7 433.3 34.2 424.7 46.9C418.9 55.6 416.9 50.9 412.3 48.1C358.9000000000001 18.4 284.2000000000001 41 267.9 133.3C261.8 166.7 267.2 200.4 283.6 233.3C295.4 257.2000000000001 340.5 309.4 419.7 263.8V334.8C419.7 361 419.5999999999999 361 445.7 361C448.8 361 452.3 360.6 455.3999999999999 361C465.4999999999999 361.8 468.9999999999999 356.6 468.9999999999999 346.7000000000001C468.8999999999999 346.5 468.8999999999999 346.4000000000001 468.8999999999999 346.2000000000001zM417.4000000000001 113.9C397.9000000000001 66.3 344.5 70.6 327.4000000000001 108.7C312.3 142 311.9000000000001 176.9 327.8 210.2C344.1 244.3 387.5 245.9 409.3 215C429.9000000000001 186.2 424.2 130.4 417.4000000000001 113.9zM122.6 78.6C115.1 79.9 89.6 81.9 88.9 106.4C88.5 120.3 96.7 129.4 108.7 132.2C133.1 138.1 158 142.1 182.4 146.9C191.3000000000001 148.9 189.8000000000001 142.5 190.2000000000001 137.4C191.6000000000001 104.4 164.1000000000001 78.2 122.6000000000001 78.6z" />
    <glyph glyph-name="affiliatetheme"
      unicode="&#xF36B;"
      horiz-adv-x="512" d=" M159.7 210.6C108.4 139.7 43.1 99.8 14 121.4C-15.2 143.1 2.8 218 54.2 288.9C105.5 359.8 170.8 399.7 199.9 378.1C229 356.5 211 281.5 159.7 210.6zM510.9 267.9C437.1 144.5 319 80.2 246.4 124.3C221.4 139.5 205.1 165.5 197.4 198.1C163.8 133.3 104.6 84.3 33.3 64.9C83.1 5.6 157.4 -32 240.3 -32C390.3 -32 511.9 91.1 511.9 242.9C512 251.4 511.6 259.7 510.9 267.9z" />
    <glyph glyph-name="algolia"
      unicode="&#xF36C;"
      horiz-adv-x="448" d=" M229.3 265.4C180 265.4 140.1 225.5 140.1 176.2C140.1 126.9 180 87 229.3 87S318.5 126.9 318.5 176.2C318.5 225.5 278.5 265.4 229.3 265.4zM292 208.8L233.1 178.2C231.3 177.3 229.3 178.6 229.3 180.5V247C229.3 248.5 230.6 249.7 232 249.6C258.2 248.6 280.9 233.9 293.1 212.5C293.8 211.2 293.3 209.5 292 208.8zM389.1 416H58.9C26.4 416 0 389.6 0 357.1V27C0 -5.6 26.4 -32 58.9 -32H389C421.6 -32 447.9 -5.6 447.9 26.9V357.1C448 389.6 421.6 416 389.1 416zM186.5 331.3C186.5 342.1 195.2 350.8 206 350.8H251.3C262.1 350.8 270.8 342.1 270.8 331.3V315.9C270.8 314.1 269.1 312.9 267.5 313.4C255.2 316.8 242.4 318.5 229.4 318.5C215.9 318.5 202.7 316.7 190 313C188.3 312.5 186.6 313.8 186.6 315.5V331.3zM102.1 294.3L111.3 303.5C118.9 311.1 131.2 311.1 138.8 303.5L146.5 295.8C147.6 294.7000000000001 147.5 292.8 146.2 291.8C140 287.3 134.1 282.4 128.6 276.9C123.2 271.5 118.2 265.6 113.8 259.5C112.8 258.2 110.9 258 109.8 259.2L102.1 266.9C94.5 274.4 94.5 286.7 102.1 294.3zM229.3 49.5C159.3 49.5 102.7 106.2 102.7 176.1S159.4 302.7000000000001 229.3 302.7000000000001C299.3 302.7000000000001 355.9 246.1 355.9 176.1C355.9 106.3 299.2 49.5 229.3 49.5z" />
    <glyph glyph-name="amazon"
      unicode="&#xF270;"
      horiz-adv-x="448" d=" M257.2 285.3C208.5 283.5 87.7 269.8 87.7 167.8C87.7 58.3 226 53.8 271.2 124.6C277.7 114.4 306.6 87.1 316.5 77.8L373.3 133.8S341 159.1 341 186.6V333.7C341 359 316.5 416 228.7 416C140.7 416 94 361 94 311.7L167.5 304.9C183.8 354.4 221.7 354.4 221.7 354.4C262.4 354.5 257.2 324.6 257.2 285.3zM257.2 198.5C257.2 118.5 173 130.5 173 181.3C173 228.5 223.5 238 257.2 239.1V198.5zM393.2 35C385.5 25 323.2 -32 218.7 -32S34.2 39.5 9.7 69C2.9 76.7 10.7 80.3 15.2 77.3C88.5 32.8 203 -40.5 387.7 47C395.2 50.7 401 45 393.2 35zM433 32.8C426.5 17 417 6 411.8 1.8C406.3 -2.7 402.3 -0.9 405.3 5.6S424.6 52.1 418 60.6C411.5 68.9 381 64.9 370 63.8C359.2 62.8 357 61.8 356 64.1C353.7 69.8 377.7 79.6 393.5 81.6C409.2 83.4 434.5 82.4 439.5 75.9C443.2 70.8 439.5 48.8 433 32.8z" />
    <glyph glyph-name="amilia"
      unicode="&#xF36D;"
      horiz-adv-x="448" d=" M240.1 416C178.2 416 108.6 399.1 55.9 360.6C50.8 357.5 46.8 351.4 48.7 341.2C49.8 336.1 53.8 313.8 58.9 301.6C63 291.4 73.1 291.4 79.2 295.5C111.7 317.8 175.7 343.2 231.5 343.2C289.4 343.2 290.4 314.8 290.4 270.1V231.6C203 220.3 78.2 197 46.7 183.8C11.2 167.5 16.3 90.3 16.3 72S31.5 -32 141.2 -32C189 -32 254.9000000000001 -11.3 294.5 10.1V-15.3C294.5 -18.3 296.6 -23.4999999999999 300.6 -24.4C303.7000000000001 -25.4 351.3 -26.4 360.5 -26.4S423 -26.7 427 -25.7C431.1 -24.7 432.1 -19.6 432.1 -16.6V280C432 360.3 374.2000000000001 416 240.1 416zM152.2 88.3C152.2 100.5 149.2 131 170.5 141.2C194.8 154.4 245.6 170.6 290.3 174.7V68C268.9000000000001 54.8 241.6 43.6 211.2 43.6C158.4 43.6 152.3 77.1 152.2 88.3" />
    <glyph glyph-name="android"
      unicode="&#xF17B;"
      horiz-adv-x="448" d=" M89.6 243.5V127.7C89.6 112.3 77.5 100 62.1 100C46.8 100 32 112.4 32 127.7V243.5C32 258.6 46.8 271 62.1 271C77.2 271 89.6 258.6 89.6 243.5zM100.4 86.5C100.4 70.1 113.6 56.9 130 56.9H149.9L150.2 -4.2C150.2 -41.1 205.4 -40.8000000000001 205.4 -4.2V56.9H242.6V-4.2C242.6 -40.9 298.1 -41.0000000000001 298.1 -4.2V56.9H318.3C334.5 56.9 347.7 70.1 347.7 86.5V265.9H100.4V86.5zM348.4 275.6H99.3C99.3 318.4 124.9 355.6 162.9 375L143.8 410.3C141 415.2 148.1 418.3 150.5 414.1L169.9 378.5C204.8 394 244.9 393.2 278.2 378.5L297.5 414C300 418.3 307 415.1 304.2 410.2L285.1 375C322.8 355.6 348.4000000000001 318.4 348.4000000000001 275.6zM177.7 331.1C177.7 336.8 173.1 341.6 167.2 341.6C161.5 341.6 157 336.8 157 331.1S161.6 320.6 167.2 320.6C173.1 320.6 177.7 325.4 177.7 331.1zM291.1 331.1C291.1 336.8 286.5 341.6 280.9000000000001 341.6C275.0000000000001 341.6 270.4000000000001 336.8 270.4000000000001 331.1S275.0000000000001 320.6 280.9000000000001 320.6C286.5000000000001 320.6 291.1 325.4 291.1 331.1zM385.9000000000001 271C370.8 271 358.4000000000001 258.9 358.4000000000001 243.5V127.7C358.4000000000001 112.3 370.8 100 385.9000000000001 100C401.3 100 416.0000000000001 112.4 416.0000000000001 127.7V243.5C416.0000000000001 258.9 401.2000000000001 271 385.9000000000001 271z" />
    <glyph glyph-name="angellist"
      unicode="&#xF209;"
      horiz-adv-x="448" d=" M347.1 232.6C358.8 265.2 392.5 359.5 392.5 389.7C392.5 416.3 376.8 438.6 348.8 438.6C304.2 438.6 264.2000000000001 306.9 251.7 275.5C242 304 196.6 448 156.6 448C125.5 448 110.9 425.1 110.9 396.3C110.9 361 145.1 269.5 157.5 234.3C151.2 236.6 144.4 238.6 137.5 238.6C114.1 238.6 89.2 209.5 89.2 186C89.2 177.1 94.1 164.6 97.2 156.3C60.3 146.3 46.1 121.7 46.1 84.6C46 12.4 114.4 -64 210.6 -64C328.6 -64 402 24.6 402 138.9C402 182 395.1 220.9 347.1 232.6zM311.7 340C315.7 352.3 332.8 404.3 348.8 404.3C357.4000000000001 404.3 359.7 395.4 359.7 388.3C359.7 369.2 321.1 263.7 312.6 240.3L278.6 246.3L311.7 340zM142.3 399.7C142.3 411.6 156.8 445.4 188.6 352.6L223.2 252.3C207.6 253.6 195.5 255.3 187.8 250.9C176.9 279.7000000000001 142.3 370.6 142.3 399.7000000000001zM140 204C169.3 204 207.1 109.4 207.1 96.6C207.1 91.5 202.2 85.2000000000001 196.5 85.2000000000001C175.6 85.2000000000001 119.6 162.1 119.6 182.9C119.7 190.6 132.3 204 140 204zM324.3 17.7C295.2 -14.3 258 -30.9 214.6 -30.9C155.2 -30.9 108.3 1.7 85.7 57.4C68.6 100.8 89.5 125.7 106.3 125.7C117.7 125.7 160.6 65.4 160.6 52.6C160.6 47.7 152.9 44.3 148.9 44.3C132.8000000000001 44.3 126.5 59.8 97.8 95.7C68.1 66 118.3000000000001 8.8 156.1 8.8C182.2 8.8 199.2 32.9999999999999 194.1 50.8C197.8 50.8 202.4 50.4999999999999 205.8 51.4C206.9 24.3 214.9 -8 247.5 -10.3C247.5 -9.4 249.5 -3.2 249.5 -2.9C249.5 14.4999999999999 238.9 29.7 238.9 47.4C238.9 75.7 260.6 103.1 282.6 119.1C290.6 125.1 300.3 128.8 309.7000000000001 132.2C319.4000000000001 135.9 329.7000000000001 140.2 337.1 147.6C336 158.8 331.4000000000001 168.7 320.2000000000001 168.7C292.5000000000001 168.7 199.6000000000001 164.7 199.6000000000001 208.4C199.6000000000001 215.1 199.7000000000001 221.5 217.0000000000001 221.5C249.3000000000001 221.5 331.3000000000001 213.5 355.3000000000001 192.4C373.4000000000001 176.3 379.6000000000001 79.2 324.3000000000001 17.7zM225.7 143.7C235.4 140.6 245.4 139.7 255.4 137.7C248 132.3 241.4 125.7 235.1 118.6C232.3 127.1 228.9 135.4 225.7 143.7z" />
    <glyph glyph-name="angrycreative"
      unicode="&#xF36E;"
      horiz-adv-x="640" d=" M640 209.8L636.8 181.6L602.3 179.3L600.3 161.2L634.8 163.5L631.5999999999999 135.3L597.1999999999999 133.1L594.9 113L629.3 115.2L626.3 89.1L561.5999999999999 84.9999999999999L574.3 198.1999999999999L527 82.8L495.1 80.8L471.3 198.6L501.6 200.6L515.2 121.2000000000001L546.9000000000001 203.6000000000001L640.0000000000001 209.8000000000001zM426.8 76.5L455.1 78.3L468 198.4L439.6 196.5L426.8 76.5zM162 59.9L142.6 95.9L139.1 58.5L110.9 56.8L113.6 85.9C102.6 67.9 81.6 51.6 56.7 50.1C23.9 48.1 -3 71 0.3 108.3C2.9 137.6 27 171.1 67.8 173.7000000000001C105.5 176.1 115.4 150.5000000000001 119.1 144.9L121.9 175.7000000000001L160.8 178.2000000000001C180.9 179.5000000000001 199.5 174.5000000000001 203.3 154.5000000000001L205.9 181.1000000000001L270.7 185.3000000000001L268 157.4000000000001L231.6 155.0000000000001L229.9 137.1000000000001L266.3 139.4000000000002L263.6 111.5000000000002L227.2 109.2000000000002L225.3 89.3000000000002L261.6 91.6000000000002L259.5 70.8000000000002L314.5 188.0000000000002L338.3 189.6000000000002L370.4 79L379.3 164.6L357 163.2000000000001L359.8999999999999 191.1L434.8999999999999 196L431.8999999999999 168L407.5999999999999 166.4L397.8999999999999 74.5L339.8999999999999 70.8L335.5999999999999 86.4L296.2 83.9L288.2 67.6L162 59.9zM117.7 130.1L91.3 128.4C84.6 140.8 76.9 145 65 144.2C46 143 31.7 126.7 30.4 110.9C29 94.9 37.7 78.4 59.1 79.7C71.9 80.5 80.4 88.3 88 98.6L115 100.3L117.7 130.1zM173.8 137.8C175 150.6999999999999 166.2 151.4 147.7 150.1999999999999L145 121.6999999999999C159.2 122.5999999999999 172.5 123.8 173.8000000000001 137.8zM194.9 66.9999999999999L200.7 127C195.7 113.5 186 105.8999999999999 172.8 100.3999999999999L194.9 66.9999999999999zM330.3 111.9999999999999L322.4000000000001 149.8L306.6 110.4999999999999L330.3 111.9999999999999zM160.2 186.5999999999999L155.9 204.0999999999999L116.3 201.4999999999999L108.2 183.2999999999999L76.3 181.1999999999999L133.3 303.0999999999999L157.2 304.6999999999999L187.9 202.6999999999999L197.8 307.3999999999999L224.8 309.1999999999999L262.6 245.5999999999999L269.1 312.1999999999999L297.6 314.0999999999999L293.6 272.8999999999999C301 286.3999999999999 316.5 317.5999999999999 357.2000000000001 320.3999999999999C397.7000000000001 323.1999999999999 409.6 291.0999999999999 410.6 290.0999999999999L413.9000000000001 322.0999999999999L453.2 324.7999999999999C465.9 325.6999999999999 481.0000000000001 324.4999999999999 489.5000000000001 315.0999999999999L485.1000000000001 326.9999999999999L517.3000000000001 329.1999999999999L530.2 285.9999999999999L553.2 331.6999999999999L584.2 333.8999999999999L540.6 255.4999999999999L535.8000000000001 211.1999999999999L507.4000000000001 209.2999999999999L512.2 253.5999999999999L496.4 296.5999999999999C497.4 274.2999999999999 487.2 256.4999999999999 464.4 246.9999999999999L489.6 208.1999999999999L453.2 205.7999999999999L434.0000000000001 242.5999999999999L430.0000000000001 204.2999999999999L401.6000000000001 202.3999999999998L404.9000000000001 233.8999999999999C398.2000000000001 224.5999999999998 385.2000000000001 198.4999999999998 345.3000000000001 195.8999999999998C319.1000000000001 194.1999999999999 299.7000000000001 206.1999999999999 289.9000000000001 235.0999999999999L285.9000000000001 194.7999999999999L260.9000000000001 193.1999999999999L223.3000000000001 256.4999999999999L217.0000000000001 190.2999999999999L160.2000000000001 186.5999999999999zM436.8000000000001 268.7C447.0000000000001 269.3999999999999 454.3000000000001 270.7999999999999 458.4000000000001 272.9999999999999C462.9000000000001 275.3999999999999 465.4000000000001 279.3999999999999 466.0000000000001 285.0999999999999C466.6000000000001 290.3999999999999 465.4000000000001 293.8999999999999 462.6000000000001 295.4999999999999C459.0000000000001 297.5999999999999 452.0000000000001 298.3 439.7000000000002 297.4999999999999L436.8000000000002 268.7zM327.7 234C333.3 228.1 340.4 225.5 349 226.1C353.7 226.4 358.1 227.9 362.3 230.2C367.8 233.2 372.9000000000001 238.2 377.4000000000001 244.5L343.2000000000001 242.2L345.6 266.1L408.7000000000001 270.4L409.9000000000001 282.4L378.7000000000001 280.3C374.6 284 370.9000000000001 286.9 367.6 288.4C363.6 290.1 359.5 291.2000000000001 355.4000000000001 290.9C347.4000000000001 290.4 340.1 287.3 333.4000000000001 281.7000000000001C325.7000000000001 275.3 321.4000000000001 267.2000000000001 320.5000000000001 257.3C319.4000000000001 247.7 321.9000000000001 240 327.7000000000001 234zM126.4 225.8L150.2 227.4L141.9 265L126.4 225.8z" />
    <glyph glyph-name="angular"
      unicode="&#xF420;"
      horiz-adv-x="415.6" d=" M169.7 179.9H245.9L207.8 271.5L169.7 179.9zM207.8 416L0 341.6L31.8 65.9L207.8 -32L383.8 65.9L415.6 341.6L207.8 416zM338 74.2H289.4L263.2 139.6H152.6L126.4 74.2000000000001H77.7L207.8 366.5L338 74.2z" />
    <glyph glyph-name="app-store-ios"
      unicode="&#xF370;"
      horiz-adv-x="448" d=" M400 416H48C21.5 416 0 394.5 0 368V16C0 -10.5 21.5 -32 48 -32H400C426.5 -32 448 -10.5 448 16V368C448 394.5 426.5 416 400 416zM127 63.5C121.5 53.9 109.2 50.7 99.7 56.2C90.1 61.7 86.9 74 92.4 83.5L106.7 108.2C122.8 113.1 136 109.3 146.3 96.8L127 63.5zM265.9 117.4H84C73 117.4 64 126.4 64 137.4S73 157.4 84 157.4H135L200.4 270.6L179.9 306C174.4 315.6 177.7 327.8 187.2 333.3C196.8 338.8 209 335.5 214.5 326L223.4 310.6L232.3000000000001 326C237.8000000000001 335.6 250.1000000000001 338.8 259.6 333.3C269.2000000000001 327.8 272.4000000000001 315.5 266.9000000000001 306L181.1 157.4H243.2C263.4000000000001 157.4 274.7000000000001 133.7 265.9000000000001 117.4zM364 117.4H335L354.6 83.5C360.1 73.9 356.8 61.7 347.3 56.2C337.7 50.7 325.5 54 320 63.5C287.1 120.4 262.5 163.2 246 191.6C229.3 220.6 241.2 249.6 253.1 259.4000000000001C266.2 236.7000000000001 285.8 202.7000000000001 312 157.4H364C375 157.4 384 148.4 384 137.4C384 126.3 375 117.4 364 117.4z" />
    <glyph glyph-name="app-store"
      unicode="&#xF36F;"
      horiz-adv-x="512" d=" M255.9 327.1L265 342.8C270.6 352.6 283.1 355.9 292.9 350.3C302.7 344.7 306 332.2 300.4 322.4L212.9 170.9H276.2C296.7 170.9 308.2 146.8 299.3 130.1H113.8C102.5 130.1 93.4 139.2 93.4 150.5C93.4 161.8 102.5 170.8999999999999 113.8 170.8999999999999H165.8L232.4 286.3L211.6 322.3999999999999C206 332.2 209.3 344.5999999999999 219.1 350.3C228.9 355.8999999999999 241.3 352.5999999999999 247 342.8L255.9 327.0999999999999zM177.2 109.1L157.6 75.1C152 65.3 139.5 62 129.7 67.6C119.9 73.2000000000001 116.6 85.7000000000001 122.2 95.5L136.8 120.7C153.2 125.8 166.6 121.9 177.2 109.1zM346.1 170.8H399.2000000000001C410.5000000000001 170.8 419.6 161.7 419.6 150.4C419.6 139.1 410.5 130.0000000000001 399.2000000000001 130.0000000000001H369.7000000000001L389.6 95.5000000000001C395.2000000000001 85.7000000000001 391.9000000000001 73.3000000000001 382.1 67.6000000000001C372.3 62.0000000000001 359.9000000000001 65.3000000000001 354.2000000000001 75.1000000000001C320.7000000000001 133.2000000000001 295.5000000000001 176.7000000000001 278.8000000000001 205.7000000000001C261.7000000000001 235.2000000000001 273.9000000000001 264.8000000000001 286.0000000000001 274.8000000000001C299.4000000000001 251.8000000000001 319.4000000000001 217.1000000000001 346.1000000000001 170.8000000000001zM256 440C119 440 8 329 8 192S119 -56 256 -56S504 55 504 192S393 440 256 440zM472 192C472 73.3 375.9 -24 256 -24C137.3 -24 40 72.1 40 192C40 310.7 136.1 408 256 408C374.7 408 472 311.9 472 192z" />
    <glyph glyph-name="apper"
      unicode="&#xF371;"
      horiz-adv-x="640" d=" M42.1 208.9C64.3 208.9 71.1 206.1 75.6 194.3H76.4V217.2C76.4 228.5000000000001 71.6 232.6 58.5 232.6C47.2 232.6 44.1 230.1 43.4 219.8H4.8C5.1 233.7 6.3 238.9 10.6 244.2C17.9 253 29.5 256 56.7 256C89.7 256 103.8 251 110.6 237.1C112.6 232.8 114.6 221.5 114.6 213.4V137.1H76.3L77.6 156.2000000000001H76.6C71.3 140.6 63 135.8000000000001 41.1 135.8000000000001C10.8 135.8000000000001 0 145.9000000000001 0 173.1000000000001C0 198.3000000000001 12.3 208.9000000000001 42.1 208.9000000000001zM59.2 160.8C72.3 160.8 76.1 163.8 76.1 174.2C76.1 183.3 71.8 185.8 56.5 185.8C43.4 185.8 38.6 182.8 38.6 173.7C38.5 163.3 42.3 160.8 59.2 160.8zM137 255.7H175.3L173.8 235.1H174.6C183.7 252.2 190.5 256 212.1 256C226.5000000000001 256 236.8 253.0000000000001 243.6 246.9000000000001C253.4000000000001 238.3000000000001 256.4000000000001 226.5000000000001 256.4000000000001 198.8000000000001C256.4000000000001 168.8000000000001 253.4000000000001 155.7000000000001 244.3000000000001 145.9C237.5000000000001 138.6 227.9000000000001 135.8 211.1 135.8C190.7 135.8 181.9 141.3 177.3 157H176.5V86.7H137V255.7zM217.9 195C217.9 222.5 214.6 227.5 197.2 227.5C180.3 227.5 176.5 222.5 176.5 198.8C176.5 170.8 180 165.3 197.7 165.3C214.1 165.3 217.9 170.9 217.9 195zM275.8 255.7H314.1L312.6 235.1H313.4000000000001C322.5000000000001 252.2 329.3 256 350.9000000000001 256C365.3 256 375.6 253 382.4000000000001 246.9C392.2000000000001 238.3 395.2000000000001 226.5 395.2000000000001 198.8C395.2000000000001 168.8 392.2000000000001 155.7 383.1 145.9C376.3 138.6 366.7000000000001 135.8 349.8 135.8C329.4000000000001 135.8 320.6 141.3 316 157H315.2V86.7H275.7V255.7zM356.7000000000001 195C356.7000000000001 222.5 353.4000000000001 227.5 336.0000000000001 227.5C319.1000000000001 227.5 315.3000000000001 222.5 315.3000000000001 198.8C315.3000000000001 170.8 318.8000000000001 165.3 336.5000000000001 165.3C352.9000000000001 165.3 356.7000000000001 170.9 356.7000000000001 195zM410.5000000000001 198.8C410.5000000000001 224.2 413.8000000000001 236.6 422.8000000000001 244.6C431.6000000000001 252.7 445.0000000000001 255.9000000000001 467.9000000000001 255.9000000000001C510.7000000000001 255.9000000000001 523.6000000000001 243.1 523.6000000000001 200.2000000000001V189.1H448.3000000000002C448.0000000000001 187.1 448.0000000000001 185.1 448.0000000000001 184.3C448.0000000000001 167.4 452.5000000000001 162.4 468.1000000000001 162.4C482.0000000000001 162.4 486.0000000000001 165.4 486.0000000000001 176.3H523.5000000000001V174C523.5000000000001 164.2 521.0000000000001 155.1 516.7000000000002 149.3C509.4000000000001 139.5 497.1000000000001 135.7 472.4000000000001 135.7C444.9000000000002 135.7 430.8000000000002 139 421.8000000000002 148C413.3000000000002 156.5 410.5000000000001 169.3 410.5000000000001 198.8zM486.9000000000001 210.4C486.6000000000001 212.2 486.6000000000001 213.7 486.6000000000001 214.2C486.6000000000001 226.5000000000001 483.3000000000001 228.8 467.0000000000001 228.8C452.6000000000001 228.8 449.9000000000001 225.8 448.9000000000001 213.7L448.6 210.4H486.9zM542.5000000000001 255.7H580.8000000000001L579.0000000000001 235.8H579.7000000000002C586.5000000000001 250.7 594.1000000000001 256 609.4000000000002 256C620.2000000000002 256 628.5000000000002 252.7 632.8000000000002 246.7C638.1000000000001 239.4 639.6000000000001 232.3 639.6000000000001 212.7C639.6000000000001 211.2 639.6000000000001 207.7 639.8000000000002 203.4H604.8000000000002C605.1000000000001 205.2 605.1000000000001 206.7 605.1000000000001 207.4C605.1000000000001 222.8 603.1000000000001 226.8 594.8000000000002 226.8C588.5000000000002 226.8 584.0000000000002 223.5 581.7000000000002 217.5C580.7000000000002 214.5 580.7000000000002 213.1999999999999 580.7000000000002 205.1999999999999V137.1999999999999H542.4000000000002V255.7z" />
    <glyph glyph-name="apple-pay"
      unicode="&#xF415;"
      horiz-adv-x="640" d=" M116.9 289.5C109.4 280.6 97.4 273.6 85.4 274.6C83.9 286.6 89.8 299.4 96.7 307.2C104.2 316.3 117.3 322.8 128 323.3C129.2 310.9 124.3 298.6 116.9 289.5M127.8 272.3C110.4 273.3 95.5 262.4 87.3 262.4C78.9 262.4 66.3 271.8 52.5 271.5C34.6 271.2 18 261.1 8.9 245C-9.9 212.7 4 165 22.2 138.7C31.1 125.7 41.7 111.4 55.7 111.9C69 112.4 74.2 120.5 90.2 120.5C106.3 120.5 111 111.9 125 112.1C139.5 112.4 148.6 125.1 157.5 138.1C167.6 152.9 171.8 167.2000000000001 172 168C171.7 168.3 144 178.9 143.7 210.9C143.4 237.7 165.6 250.4 166.6 251.2C154.1 269.8 134.6 271.8 127.8 272.3M228.2 308.5V113.6H258.5V180.2000000000001H300.4C338.7 180.2000000000001 365.5 206.5000000000001 365.5 244.5000000000001S339.1 308.5000000000001 301.4 308.5000000000001H228.2zM258.5 283H293.4C319.7 283 334.7 269 334.7 244.4S319.7 205.6 293.3 205.6H258.5V283zM420.7 112.1C439.7 112.1 457.3 121.7000000000001 465.3 137H465.9V113.6H493.9V210.6C493.9 238.7 471.4 256.9000000000001 436.8 256.9000000000001C404.7 256.9000000000001 380.9000000000001 238.5000000000001 380 213.3000000000001H407.3C409.6 225.3000000000001 420.7 233.2000000000001 435.9000000000001 233.2000000000001C454.4 233.2000000000001 464.8 224.6000000000001 464.8 208.7000000000001V197.9L427 195.6C391.9 193.5 372.9 179.1 372.9 154.1C373 128.9 392.6 112.1 420.7 112.1zM428.9 135.2000000000001C412.8 135.2000000000001 402.5 143.0000000000001 402.5 154.8000000000001C402.5 167.1000000000001 412.4 174.2000000000001 431.3 175.3000000000001L464.9 177.4000000000001V166.4000000000001C464.9 148.2000000000001 449.4000000000001 135.2000000000001 428.9000000000001 135.2000000000001zM531.4 60.6C560.9 60.6 574.8 71.9 586.9 106L640 255H609.2L573.6 139.9H573L537.4 255H505.8L557 113.1L554.2 104.5C549.6 89.9 542.1 84.2 528.7 84.2C526.3000000000001 84.2 521.7 84.5 519.8000000000001 84.7V61.3C521.6 60.9 529.1 60.6 531.4000000000001 60.6z" />
    <glyph glyph-name="apple"
      unicode="&#xF179;"
      horiz-adv-x="448" d=" M247.2 310.4C241 308.5 231.9 306.9 219.3 305.8C220.4 362.5 249.2 402.4 307.3 415.9C316.6 374.3 281.2 321.8 247.2 310.4zM368.5 237.7C374.9 247.1 385.1 257.6 399.1 269.4C376.8 297 351 313.7 314 313.7C278.6 313.7 248.8 295.5 227 295.5C208.5 295.5 175.1 311.6 142.5 311.6C72.9 311.6 36 243.5 36 172.6C36 93.8 95.7 -32 156.2 -32C180 -32 201.4 -14 229.7 -14C259 -14 282.5 -31.2 310 -31.2C356 -31.2 398.6 46.3 412 88.5C365.2 102.8 327.6 178.7 368.5 237.7z" />
    <glyph glyph-name="asymmetrik"
      unicode="&#xF372;"
      horiz-adv-x="576" d=" M517.5 138.8C556.3 178.8 575.6 218.8 576 254.9C576.8 320.4 516.6 373.1 406.6 389.9C277.9 409.6 118.1 374.4 0 307.5C52 334 110.6 355.7 170.7 365.7C245.2 386.2 323.7 391.1 392 380.5C544.5 356.7 588.8 253 490.8 148.8C480.6 138 468.8 127.7 455.8 118.2L304.9 344.6L114.7 59.1C49.1 88.5 38.2 149.3 95.6 210.3C116.4 232.5 143.9 252.2 175.1 268.4C195.1 280.6 214.8 291 237.1 299.1C172 278.8 114.4 246.2 75.5 206.2C47.8 177.6 34.1 149.1 33.8 123.3C33.3 88.1999999999999 57.2 58.1999999999999 102.2 40.3L67.7 -11.4H169.3L191.3 22.9999999999999C213.5 21.9999999999999 236.6 22.9999999999999 259.9 25.6999999999999L237.1 -11.4000000000001H372.6L340 41.7C358.6 47 376.9 53.2 394.5 60.4L440.4 -11.4H542L468.6 99C487.1 111.1 503.6 124.5 517.5 138.8zM329.9 58.3L304.9 98.9L272.2 45.6C248.8 42.1 225.5 40.5 203 41.2L304.9 200.5000000000001L383.6 77.5000000000001C366.4 70.1000000000001 348.3 63.6000000000001 329.9 58.3000000000001z" />
    <glyph glyph-name="audible"
      unicode="&#xF373;"
      horiz-adv-x="640" d=" M640 248.1V194.1L320 -5.9L0 194V248L320 48L640 248.1zM445.5 176.1L492.6 205.5C455.4 261.3 391.9000000000001 298.1 319.9000000000001 298.1C247.9000000000001 298.1 184.4 261.4000000000001 147.3000000000001 205.7H147.6000000000001C150.1000000000001 208 152.7000000000001 210.2 155.3000000000001 212.4C245.0000000000001 286.8 374.7000000000001 270.5 445.5 176.1zM225.4 157.3C242.3 169.2 261.9 176 282.8 176C317.2 176 348 157.6 369.2000000000001 128.4L414.6 156.8C393.7000000000001 186.6999999999999 359 206.3 319.8 206.3C280.9000000000001 206.3 246.4 186.9 225.4 157.3zM103.6 286.9C235.4 391.2 421.8 363.3 521.1 224.8L521.8000000000001 223.8L570.6 254.2C517.1 335.9 424.8 389.9 319.9 389.9C216.4 389.9 123.3 336.4 69.4 254.3C79.3 264.8 92.1 277.8 103.6 286.9zM570.6 254.2z" />
    <glyph glyph-name="autoprefixer"
      unicode="&#xF41C;"
      horiz-adv-x="640" d=" M318.4 432L157.4 -48H234.9L260.3 33.4H379.8L405 -48H482.5L318.4 432zM278.1 90.1L319.3 220.5H320.8L361.7 90.1H278.0999999999999zM640 43L630 74.4L462.1 90L481.5 33.5L640 43zM177.9 90L10 74.3L0 43L158.5 33.6L177.9 90z" />
    <glyph glyph-name="avianex"
      unicode="&#xF374;"
      horiz-adv-x="512" d=" M453.1 416H141.1C102.2 416 64.9 384.8 57.8 346.3L1.2 37.7C-5.9 -0.8 19.9 -32 58.9 -32H370.9C409.8 -32 447.1 -0.8 454.2 37.7L510.9 346.2C517.9 384.8 492.1 416 453.1 416zM394.9000000000001 68.7L362.9000000000001 55.2L247.5000000000001 165.2C232.8000000000001 155.2 218.3000000000001 145.7 205.8 138.1L227.9 73.9L210 61.2L169.4 122.2L117 170.3L132.7 185.7L190.7 154.6C200 165.1 211.5 177.2 223.5 189.5L203 219.1L134.2 318.9L153 347.8L161.9 352.6L265 240.2L269.9 235.7C289.3 254.5 303.7 268.1 303.7 268.1C311.4 274.6 325.2 271 334.4 260.2C343.4 249.7 345 235.5 337.1 228.9C335.3 227.6 321.6 217.5 301.8 203.3L306.3 196L401.2 76.6L394.8999999999999 68.7z" />
    <glyph glyph-name="aviato"
      unicode="&#xF421;"
      horiz-adv-x="640" d=" M107.2 164.5L88.2 206.3H36.1L17.1 164.5H0L62.2 295.9L124.4 164.5H107.2zM62.2 262.6L42.6 220.1H81.8L62.2 262.6zM174.9 160.2L112.7 291.6H129.8L174.9 195.6L220 291.6H237L174.9 160.2zM255.5 164.5V291.6H271V164.5H255.5zM464.6 280.1V164.5H447.3V280.1H406.1V291.6H505.7V280.1H464.6zM640 229.2C640 220 638.3 211.4 634.9 203.4C631.5 195.4 626.6999999999999 188.3 620.6999999999999 182.3C614.6999999999999 176.3 607.5999999999999 171.5 599.5999999999999 168.1C591.5999999999999 164.7 582.9999999999999 163 573.8 163S556 164.6999999999999 548 168.1C540 171.5 532.9 176.3 526.9 182.3C520.9 188.3 516.1 195.3 512.6999999999999 203.4C509.3 211.4 507.5999999999999 220 507.5999999999999 229.2S509.2999999999999 247 512.6999999999999 255C516.0999999999999 263 520.9 270.1 526.9 276.1C532.9 282.1 539.9 284.5 548 288C556 291.4 564.6 293.1 573.8 293.1S591.5999999999999 291.4 599.5999999999999 288C607.5999999999999 284.6 614.6999999999999 282.2 620.6999999999999 276.1C626.6999999999999 270.1 631.4 263 634.9 255C638.3 247 640 238.4 640 229.2zM624.5 229.2C624.5 236.5 623.2 243.2 620.6 249.5C618 255.8 614.4 261.2 609.8000000000001 265.8C605.2 270.4 599.8000000000001 274 593.6 276.7000000000001C587.4 279.4 580.8000000000001 280.7000000000001 573.8000000000001 280.7000000000001S560.2 279.4 554.0000000000001 276.7000000000001C547.8000000000001 274 542.4000000000001 270.4 537.8000000000001 265.8C533.2 261.2000000000001 529.6 255.8 527.0000000000001 249.5C524.4000000000001 243.2 523.1000000000001 236.4 523.1000000000001 229.2C523.1000000000001 221.9 524.4000000000001 215.2 527.0000000000001 208.9C529.6000000000001 202.6 533.2000000000002 197.2 537.8000000000001 192.6C542.4000000000001 188 547.8000000000001 184.4 554.0000000000001 181.7C560.2000000000002 179 566.8000000000001 177.7 573.8000000000001 177.7S587.4000000000001 179 593.6 181.7C599.8000000000001 184.4 605.2 188 609.8000000000001 192.6C614.4000000000001 197.2 618.0000000000001 202.6 620.6 208.9C623.2 215.2 624.5 222 624.5 229.2zM529.7 132.5V138.8L618.6 148.8L375.7000000000001 135.4C376.3000000000001 137.6 376.8000000000001 140.0000000000001 377.1 142.6C377.4000000000001 144.6 377.6 146.8 377.7000000000001 149.1L442.5000000000001 157.2000000000001L377.6 155.3000000000001C377.6 155.7000000000001 377.5 156.0000000000001 377.5 156.4000000000001C374.7 173.6000000000001 352 180.1000000000001 352 180.1000000000001L350.9 206.4000000000001H374.7L393.7 164.6000000000001H410.8L348.6 296L286.4000000000001 164.6H303.5000000000001L322.5000000000001 206.4H346.1000000000001L345 180S322.3 173.5 319.5 156.3C319.4 156 319.4 155.6 319.4 155.2L254.5 157.1L319.3 149C319.4 146.6999999999999 319.6 144.6 319.9 142.5C320.2 139.8999999999999 320.7 137.5 321.3 135.3L78.4 148.8L167.3 138.8V132.5C161.4 131.6 156.8 126.5 156.8 120.3C156.8 113.5 162.4 107.9 169.2 107.9C176 107.9 181.6 113.5000000000001 181.6 120.3C181.6 126.5 177 131.6 171.1 132.5V138.3L251.4000000000001 129.3V123.9C245.7000000000001 122.8 241.5000000000001 117.7000000000001 241.5000000000001 111.8C241.5000000000001 105 247.1 101.6 253.9000000000001 101.6C260.7000000000001 101.6 266.3 105 266.3 111.8C266.3 117.8 262 122.8 256.4000000000001 123.9V128.8L284.8 125.6V101.9H278.9000000000001V88H284.8V94.6H289.8V88H295.7V101.8H289.8V125L328.1 120.7C336.2000000000001 109.3 347.1 107.1 347.1 107.1L347 100.4L341.9 100.2L341.8 88.1H345.9L346 93.1H351.2L351.3 88.1H355.4000000000001L355.3 100.2L350.2 100.4L350.1 107.1S361 109.2 369.1 120.7L407.4 125V101.8H401.5V88H407.4V94.6H412.4V88H418.3V101.8H412.4V125.5L440.8 128.7V123.8C435.1 122.7 430.9 117.6 430.9 111.7C430.9 104.9 436.5 101.5 443.3 101.5C450.1 101.5 455.6999999999999 104.9 455.6999999999999 111.7C455.6999999999999 117.7 451.3999999999999 122.7 445.8 123.8V129.2L526.0999999999999 138.2V132.4C520.1999999999999 131.5 515.5999999999999 126.4 515.5999999999999 120.2C515.5999999999999 113.4 521.1999999999999 107.8 527.9999999999999 107.8C534.7999999999998 107.8 540.3999999999999 113.4 540.3999999999999 120.2C540.1999999999998 126.5 535.6999999999998 131.6 529.6999999999998 132.5zM328.9000000000001 220.1L348.5000000000001 262.6L368.1000000000001 220.1H350.2000000000001L348.5000000000001 260.4L346.8000000000002 220.1H328.9000000000002z" />
    <glyph glyph-name="aws"
      unicode="&#xF375;"
      horiz-adv-x="512" d=" M261.2 311.9C247.2 254.4 248.1 257.5 235.4 204.9C233.8 198.4 231.3 196.5 224.7 196.4H210.3C204.5 196.5 202.1 198 200.4 203.7C188.1 243.1 171.6 297.8 160.5 334.4C156.4 347.9 159.1 347.6 169.8 347.3C173.5 347.2000000000001 177.1 347.3 180.8 347.3C185.9 347.2000000000001 188.5 345.3 189.9 340.2000000000001C193.5 327.3 195.9 317.4 216.5 236.1C216.9 234.5000000000001 217.4 233.0000000000001 217.9 231.5000000000001H219C219.5 233.5000000000001 220.1 235.4000000000001 220.6 237.4000000000001C228.4 270.3000000000001 236.1 303.3000000000001 243.9 336.2000000000001C246.3 346.4000000000001 250.6 347.4000000000001 260.9 347.4000000000001H268.5C275.4 347.3000000000001 277.5 345.9000000000001 279.2 339.1C285.2 315.7000000000001 302.7 237.3000000000001 305.9 228.7000000000001C311 247.0000000000001 304.1 220.8000000000001 334.4 337.7000000000001C336.5 345.8000000000001 338.5 347.4000000000001 346.7 347.4000000000001H359.4C364.8 347.3000000000001 366.4 345.6 365.1 340.3000000000001C362.7 330.8000000000001 362.2 330.4000000000001 323.8 207.4C320.7 197.5 319.6 196.6 309.2 196.6H298.5999999999999C291.2999999999999 196.6 289.3999999999999 197.9 287.5999999999999 205C283.2999999999999 221.2 264.2999999999999 300.7000000000001 261.2 311.9000000000001zM125.4 200.7C129.6 194.9 133.5 194.4 139.5 198.3L145.8 202.5C152.6 207 153.1 208.8 149.4 216C145.1 224.4 143 233.3 143.1 242.9C143.1 246 143.7 298.6 142.2 309.7C139.5 329 129.7 342.5 110.5 348.4C99.8 351.8 88.8 351.7 77.8 351.4C62.7 351 48.4 346.8 35 340C33.2 339.1 31.3 336.9 30.9 335.1C30.1 331.2 29.8 327 30.2 323C30.8 317.1 32.8 316 38.4 317.9C43.5 319.6 48.4 321.8 53.5 323.3C68 327.7 82.7 329.7 97.6 325C104.7 322.8 109.3 318.1 111.9 311.2C114.9 303.3 114.3 295.1 114.3 287C114.3 281.5 114.2 281.5 108.8 282.5C94.9 285.1 81.1 287.5 66.9 285.6C51.7 283.5 38.3 278.3 28.7 265.6C19.6 253.6 18.7 240 21.3 226.1C24.1 211.1 33.1 200.4 47.7 195.7C68.3 189 87.8 192.4 105.4 205.2C109.2 208 112.6 211.4 116.5 214.7C119.6 209.7 122.3 205 125.4 200.7zM110.1 262.3C113.1 261.9 114.6 260.4 114.4 257.2C114.2 253.4 114.5 249.6 114.1 245.8C112.9 234.1 106.4 226.1 96.2 220.9C88 216.7 79.3 215.1 70.1 215.9C54.9 217.2 49.1 229 50.5 242.2C51.8 254.8 59 261.8 72 264C85.8 266.4 88 265.1 110.1 262.3zM458.9 197.2C480.2 205.8 491.8 223.4 488.1 247.2C485.9 261.8 476.3 271.4 462.9 276.7C448.2000000000001 282.6 429.1 287 414.8 294.9C410.4000000000001 297.3 407.4000000000001 301.2 407.2 306.8C406.8 317.9 411.4 324 422.6 326.6C431.9 328.7 441.4 328.8 450.7 327C458 325.6 465 322.8 472.1 320.7C474.9 319.8 477.9999999999999 318.6 479.9 322.3C483.7 329.6 480.3 341 472.6 344.1C450.1 353.1 427.1 355.7 404.4 345.7C389.8 339.3 379.8 328.3 378.4 311.5C376.8 292.2 385.3 278.1 402.5 269.8C410.2 266.1 418.6 263.9 426.7 260.9C434.8 257.9 442.9 255.1 450.8 251.8C463.1 246.5 462.4 227.6 452 221.8C424.3 206.5 387.1 224.2 382.8 225.6C379.5 226.7 377.5 225.4 376.5 221.9C373.5 210.6 377.2 203.1 388.1 199.2C409.8 191.3 437.7000000000001 188.7 458.9 197.2zM296 34.5C346.8 40.3 394.7 55.3 438.7 81.5C446.7 86.2 454.2 91.8 461.8 97.2C469.1 102.4 465 115.6 450.5 109.4C396.1 86.2 339.3 73.3 280.3 70.5C249.8 69 219.5 70.8 189.2 75.2C126.1 84.4 66.8 104.4 11.6 136.4C9.5 137.6 7.4 138.9 5.1 139.4C0.2 140.5 -2.6 134.7 2.7 129.7C26.7 107.6 53 88.9 81.8 74C135.5 46.3 192.3 31.3 253 32C267.4 32.8 281.8 32.9 296 34.5zM470.7 126.7C485.5 125.9 490.1 120.8 486.4 106.5C482.6 91.7 477.1 77.3 472.5 62.7C471.6 59.8 468.3 56.4 471.7 53.9C475.4 51.3 478.2 54.9 480.7 57.2C490.9 66.7 498.1 78.2 503.2 91C508.6 104.4 512.5 118.2 511.9 132.9C511.7 139.1 510.1 141.7 504.1 143.4C498.7 144.9 493.1 146.2 487.6 146.6C465.9999999999999 148.4 445.1 146.1 425.6 136C422.5 134.3999999999999 419.6 132.3 416.9 130.1C415.8 129.2 413.7 124.8 419.3 124C421.2 123.6999999999999 423.2 124.1 425.2 124.3C442.0999999999999 125.9 453.8 127.6 470.6999999999999 126.6999999999999z" />
    <glyph glyph-name="bandcamp"
      unicode="&#xF2D5;"
      horiz-adv-x="496" d=" M248 440C111 440 0 329 0 192S111 -56 248 -56S496 55 496 192S385 440 248 440zM296.2 113.9H115.2L199.9 270H380.9L296.2 113.9z" />
    <glyph glyph-name="behance-square"
      unicode="&#xF1B5;"
      horiz-adv-x="512" d=" M186.5 155C186.5 135.7 172.5 129.6 155.3 129.6H110.2V182.5H156.2C174.8 182.4 186.5 174.7 186.5 155zM178.8 237.3C178.8 255 165.1 259.2000000000001 149.9 259.2000000000001H110.3V214.4H153C168.1 214.4 178.8 221 178.8 237.3000000000001zM311.1 214.1C292.8 214.1 280.6 202.7 279.4000000000001 184.4H341.6C339.9000000000001 202.9 330.3 214.1 311.1 214.1zM448 368V16C448 -10.5 426.5 -32 400 -32H48C21.5 -32 0 -10.5 0 16V368C0 394.5 21.5 416 48 416H400C426.5 416 448 394.5 448 368zM271.7 263H349.5V281.9H271.7V263zM228.7 152.7C228.7 176.8 217.3 197.6 193.7 204.3C210.9 212.5 219.9 222 219.9 241.3C219.9 279.5 191.4 288.8 158.5 288.8H68V96.8H161.1C196 96.9999999999999 228.7 113.6999999999999 228.7 152.6999999999999zM380 167.5C380 208.6 355.9 242.9 312.4 242.9C270 242.9 241.3 211.1 241.3 169.3C241.3 126 268.6 96.3 312.4 96.3C345.6 96.3 367.1 111.2 377.5 143.1H343.8C340.1 131.2000000000001 325.2 125 313.6 125C291.2000000000001 125 279.5 138.1 279.5 160.3H379.7C379.8 162.6 380 165.1 380 167.5z" />
    <glyph glyph-name="behance"
      unicode="&#xF1B4;"
      horiz-adv-x="576" d=" M232 210.8C263.8 226 280.4 249 280.4 284.8C280.4 355.4 227.8 372.6 167.1 372.6H0V18.2H171.8C236.2 18.2 296.7000000000001 49.1 296.7000000000001 121.1C296.7000000000001 165.6 275.6 198.5 232.0000000000001 210.8zM77.9 312.1H151C179.1 312.1 204.4 304.2 204.4 271.6C204.4 241.5 184.7 229.4 156.9 229.4H77.9V312.1zM161.2 78.4H77.9V176H162.8C197.1 176 218.8 161.7 218.8 125.4C218.8 89.6 192.9 78.4 161.2 78.4zM519.7 319.1H376V354H519.7V319.1zM576 142.8C576 218.7 531.6 282 451.1 282C372.9000000000001 282 319.8 223.2 319.8 146.2C319.8 66.3 370.1 11.5 451.1 11.5C512.4 11.5 552.1 39.1 571.2 97.8H509C502.3 75.9 474.7 64.3 453.3 64.3C412 64.3 390.3 88.5 390.3 129.6H575.4C575.6999999999999 133.8 576 138.3 576 142.8zM390.4 174C392.7 207.7 415.1 228.8 448.9 228.8C484.3 228.8 502.1 208 505.1 174H390.4z" />
    <glyph glyph-name="bimobject"
      unicode="&#xF378;"
      horiz-adv-x="448" d=" M416 416H32C14.4 416 0 401.6 0 384V0C0 -17.6 14.4 -32 32 -32H416C433.6 -32 448 -17.6 448 0V384C448 401.6 433.6 416 416 416zM352 158.6C352 109.2000000000001 340.6 76 248.2 76H231.3C187.2 76 168.9 90.9 160.9 114.8H160V80H96V312H160V237.3H161.1C165.7 267.8 200.8 276.1 230.8 276.1H248.1C340.5 276.1 351.9000000000001 243.0000000000001 351.9000000000001 193.6V158.6zM288 187.5V164.6C288 142.9 284.6 130.8 249.6 130.8H204.3C175.4 130.8 160.2 137.3 160.2 166.5V185.5C160.2 214.8 175.4 221.2 204.3 221.2H249.6C284.6 221.4 288 209.2 288 187.5z" />
    <glyph glyph-name="bitbucket"
      unicode="&#xF171;"
      horiz-adv-x="512" d=" M23.1 416C14.2 416.1 7 409.1 6.9 400.2C6.9 399.3 7 398.4 7.1 397.4L74.9 -14C76.6 -24.4 85.6 -32 96.1 -32.1H421.2000000000001C429.1 -32.2 435.9000000000001 -26.5 437.2000000000001 -18.7L505.0000000000001 397.3C506.4 406 500.5000000000001 414.2 491.8000000000001 415.6C490.9000000000001 415.7 490.0000000000001 415.8 489.0000000000001 415.8L23.1 416zM308.4000000000001 118.7H204.6L176.5 265.5H333.5L308.4 118.7z" />
    <glyph glyph-name="bitcoin"
      unicode="&#xF379;"
      horiz-adv-x="512" d=" M504 192C504 55.033 392.967 -56 256 -56S8 55.033 8 192S119.033 440 256 440S504 328.967 504 192zM362.349 227.33C367.286 260.329 342.158 278.069 307.799 289.903L318.945 334.605L291.732 341.386L280.881 297.862C273.727 299.645 266.379 301.326 259.078 302.992L270.007 346.802L242.809 353.583L231.656 308.897C225.734 310.246 219.9209999999999 311.579 214.279 312.981L214.31 313.121L176.78 322.491L169.541 293.429S189.732 288.802 189.3059999999999 288.516C200.3279999999999 285.765 202.3199999999999 278.472 201.9859999999999 272.691L189.2899999999999 221.766C190.0499999999999 221.572 191.0339999999999 221.293 192.119 220.859C191.2119999999999 221.084 190.243 221.332 189.243 221.572L171.447 150.2339999999999C170.098 146.8859999999999 166.68 141.8639999999999 158.976 143.7699999999999C159.2469999999999 143.375 139.196 148.7069999999999 139.196 148.7069999999999L125.6859999999999 117.56L161.0999999999999 108.733C167.6879999999999 107.0819999999999 174.1449999999999 105.3539999999999 180.5 103.727L169.238 58.514L196.4199999999999 51.733L207.5729999999999 96.466A1038.209 1038.209 0 0 1 229.26 90.8389999999999L218.1449999999999 46.3159999999999L245.3579999999999 39.5349999999999L256.6199999999999 84.6629999999999C303.0239999999999 75.8819999999999 337.9189999999999 79.4239999999999 352.6059999999999 121.3899999999999C364.4419999999999 155.1799999999999 352.0169999999999 174.6709999999999 327.6019999999999 187.3809999999999C345.3819999999999 191.4789999999999 358.7759999999999 203.1729999999999 362.3489999999999 227.3299999999999zM300.172 140.151C291.762 106.3609999999999 234.864 124.6279999999999 216.417 129.208L231.361 189.107C249.807 184.504 308.961 175.39 300.172 140.151zM308.589 227.818C300.916 197.082 253.558 212.698 238.196 216.526L251.744 270.853C267.107 267.025 316.58 259.88 308.589 227.818z" />
    <glyph glyph-name="bity"
      unicode="&#xF37A;"
      horiz-adv-x="496" d=" M78.4 380.8C173.8 470 324.5 472 421.5 377C435.8 362.9 415.1 339.9 399.1 355.5C314.3 437.9 183.3 435.8 100.2000000000001 358.7C83.9000000000001 343.6 63.7000000000001 367 78.4000000000001 380.8zM177.3 -37.8C196.6 -43.5 206.6 -14.2 185.2 -7.8C73 26.1 9.4 141.9 37.7 253.2C42.7 272.8 12.8 281.3 7.5 260.3C-24.6 132.9 48.6 0.5 177.3 -37.8000000000001zM325.4 -35.8C447.3 4.4 518.3 131.1 489.8 255.2C485.3 274.9 454.9 269 459.8 247.3C483.9999999999999 139.6 422.7 29.4 316.6 -6.1C295.4 -13.1 306.2 -42.1 325.4 -35.8zM262.5 43.2L262.7 115C262.7 123.2 256.1 129.8 247.9 129.8C239.7 129.8 233.1 123.1 233.1 115L232.9 43.2C232.9 35 239.5 28.4 247.7 28.4S262.5 35 262.5 43.2zM333.5 312.2C335.6 221.3 338.2 180.3 248 179.7C155.5 180.4 161.1 224 162.5 312.2C162.5 334 130 331.8 130 312.2V240.6C130 171.3 190.7 149.7 248 150.5C305.3 149.7 366 171.3 366 240.6V312.2C366 331.8 333.5 334 333.5 312.2z" />
    <glyph glyph-name="black-tie"
      unicode="&#xF27E;"
      horiz-adv-x="448" d=" M0 416V-32H448V416H0zM316.5 90.8L224 2.1L131.5 90.8L196 274.8L131.5 361.4H316.4L252 274.8L316.5 90.8z" />
    <glyph glyph-name="blackberry"
      unicode="&#xF37B;"
      horiz-adv-x="512" d=" M166 331.1C166 307.7 149.6 282 93.5 282H23.4L44.4 370.8H112.2C154.3 370.8 166 347.5 166 331.1zM292.2 370.8H224.4L205.7 282H275.8C329.6 282 345.9 307.7 345.9 331.1C346 347.5 334.3 370.8 292.2 370.8zM88.8 239.9H21L0 151.1H70.1C126.2 151.1 142.6 174.5 142.6 200.2C142.6 216.5 130.9 239.9000000000001 88.8 239.9000000000001zM268.9 239.9H201.1L182.4 151.1H252.5C306.3 151.1 322.6 174.5 322.6 200.2C322.6 216.5 310.9 239.9000000000001 268.9 239.9000000000001zM458.2 293.7H390.4L371.7 204.9H441.8C495.6 204.9 511.9 228.3 511.9 254C512 270.3 500.3 293.7 458.2 293.7zM430.2 155.8H362.4L343.7 67H413.8C469.9 67 483.9 90.4 483.9 116.1C483.9 132.4 472.3 155.8 430.2 155.8zM240.8 102H173L154.3 13.2H224.4C280.5 13.2 294.5 38.9 294.5 62.3C294.6 78.6 282.9 102 240.8 102z" />
    <glyph glyph-name="blogger-b"
      unicode="&#xF37D;"
      horiz-adv-x="448" d=" M446.6 225.3C444.8 233.3 439.8 240.7 434.1 243.8C432.3 244.8 421.1 246 409.1 246.5C389 247.4 386.8 247.8 380.4000000000001 251.5C370.3 257.4 367.6 263.8 367.5000000000001 281C367.4000000000001 314 353.7000000000001 344.7 326.6000000000001 372.3C307.3000000000001 392 285.7000000000001 405.3 261.1000000000001 412.8C255.2000000000001 414.6 242.0000000000001 415.2 197.8000000000001 415.7C128.4000000000001 416.5 113.0000000000001 415.1 89.4000000000001 405.7C45.9 388.5 14.7 351.9 3.3 305.1C1.2 296.3 0.7 282.2 0.2 201.2C-0.4 99.7 0.3 84.8 6.6 64.7C22.2 15.1 66.5 -21.6 111 -29.6C125.8 -32.3 308.3 -32.9 327 -30.4C359.5 -26.0000000000001 385 -12.9 408.9 11.4999999999999C426.2 29.1999999999999 437 48.3 444.1 73.6C449 91.2 448.6 216.4 446.6 225.3zM124.5 288.9C132.3 296.8 134.5 297.1 183.3 297.1C227.2 297.1 228.7 297 235.1 293.7C244.4000000000001 289 248.5000000000001 282.4 248.5000000000001 271.8C248.5000000000001 262.3 244.7 255.6 236.2 250.2C231.6 247.3 228.9 247.1 185.9 246.9C159.4 246.7 138.2000000000001 247.3 135.1 248.1C118.5 252.8 112.3 276.6 124.5 288.9zM316.3 89.1L301.4000000000001 86.7000000000001L223.9 85.8000000000001C155.8000000000001 85.0000000000001 136.6 86.2000000000001 133 87.8000000000001C125.9 90.9000000000001 119.2 99.5000000000001 118.1 107.2000000000001C117 114.5000000000001 120.7 124.5000000000001 126.3 129.6C133.4 136 136.5 136.2000000000001 223.6 136.3C313.2000000000001 136.4 312.7000000000001 136.4 321.2000000000001 128.5C333.3000000000001 117.2 330.7000000000001 97.3 316.3000000000001 89.1z" />
    <glyph glyph-name="blogger"
      unicode="&#xF37C;"
      horiz-adv-x="448" d=" M162.4 252C167.2 256.9 168.6 257.1 198.8 257.1C226 257.1 226.9 257 230.9 255C236.7 252.1 239.2 248 239.2 241.4C239.2 235.5 236.8 231.4 231.6 228C228.8 226.2 227.1 226.1 200.5 225.9C184.1 225.8 171 226.1 169 226.7C158.7 229.6 154.9 244.4 162.4 252.0000000000001zM223.8 157.5C169.9 157.5 168 157.3 163.6 153.4C160.1 150.3 157.9 144 158.5 139.5C159.2 134.8 163.3000000000001 129.4 167.7 127.5C169.9 126.5 181.8 125.8 224 126.3L271.9 126.9L281.1 128.4C290.1 133.5000000000001 291.6 145.8 284.2 152.8C278.9 157.5 279.2 157.5 223.8 157.5zM447.2000000000001 27.4C443.7000000000001 -1 424.2000000000001 -23 396.1 -30.1C388.9000000000001 -31.9 386.4000000000001 -32 223.2 -31.9C65.4 -31.9 57.3 -31.8 51.2 -30.1C42.8 -27.9 35.6 -24.6 28.9 -20.1C23.3 -16.3 15 -8.3 11.9 -3.7C8.1 1.9 3.7 11.6 1.9 18.3C0.1 25 0 27.7 0 191.7C0 354.8 0 358.3 1.8 365.4C8.1 390.1 27.7 409 53 414.6C60.3 416.2 385.1 416.5 393 414.9C414.2 410.6 430.9 397.8 440.6 378.5C448.3 363.2 447.6 380 447.9000000000001 197.9C448.1 82.1 447.9000000000001 33.4 447.2000000000001 27.4zM361.8000000000001 212.6C360.7000000000001 217.6 357.6000000000001 222.2 354.1000000000001 224.1C353.0000000000001 224.7 346.1000000000001 225.4 338.6000000000001 225.8C326.2000000000001 226.4 324.8000000000001 226.6 320.8000000000001 228.9C314.6000000000001 232.5 312.9000000000001 236.5 312.8000000000001 247.2C312.8000000000001 267.6 304.3000000000001 286.6 287.5000000000001 303.7C275.5000000000001 315.9 262.2000000000001 324.2 246.9000000000001 328.8C243.3000000000001 329.9 235.1000000000001 330.3 207.7000000000001 330.6C164.8000000000001 331.1 155.2000000000001 330.2 140.6000000000001 324.4C113.6000000000001 313.7 94.3000000000001 291 87.2000000000001 262C85.9000000000001 256.5999999999999 85.6000000000001 247.8 85.3 197.6999999999999C84.9 134.8999999999999 85.3 125.5999999999999 89.3 113.1999999999999C99 82.4999999999999 126.4 59.8 153.9 54.8C163.1 53.1 276.1 52.6999999999999 287.6 54.3C307.7000000000001 56.9999999999999 323.5 65.1 338.3 80.1999999999999C349 91.0999999999999 355.7 102.9999999999999 360.1 118.6999999999999C363.3 129.5999999999999 363 207.0999999999999 361.8 212.5999999999999z" />
    <glyph glyph-name="bluetooth-b"
      unicode="&#xF294;"
      horiz-adv-x="320" d=" M196.48 187.977L289.106 291.31L143.125 448V241.67L57.014 327.781L25.608 296.376L133.669 187.977L25.608 79.578L57.014 48.173L143.125 134.284L145.84 -64L294.392 84.644L196.48 187.977zM237.34 290.973L187.363 240.995L187.025 341.29L237.34 290.973zM187.363 134.96L237.34 84.982L187.025 34.6659999999999L187.363 134.9599999999999z" />
    <glyph glyph-name="bluetooth"
      unicode="&#xF293;"
      horiz-adv-x="448" d=" M292.6 276.9L249.7 234L249.4 320L292.6 276.9M249.4 57.1L292.5 100.2000000000001L249.6 143.1L249.4 57.1zM416 188.6C416 -17 344.1 -64 230.9 -64S32 -17 32 188.6S115.4 448 228.6 448S416 394.1 416 188.6zM257.5 188.6L336.9 277.2000000000001L211.8 411.5V234.6L138 308.4L111 281.5L203.7 188.5L111 95.5L137.9 68.6L211.7 142.4L214 -27.6L341.4 99.9L257.5 188.6z" />
    <glyph glyph-name="btc"
      unicode="&#xF15A;"
      horiz-adv-x="384" d=" M310.204 205.362C337.9340000000001 219.542 355.581 244.752 351.4840000000001 286.662C346.1260000000001 344.013 299.0260000000001 363.235 236.6340000000001 368.591V448H188.1060000000001V370.7970000000001C175.5010000000001 370.7970000000001 162.5810000000001 370.482 149.662 370.1670000000001V448H101.134V368.591C83.2920000000001 368.052 62.512 368.315 3.764 368.591V316.913C42.078 317.591 62.181 320.053 66.787 295.486V78.057C63.862 58.565 48.263 61.372 13.532 61.986L3.765 4.32C92.246 4.32 101.135 4.005 101.135 4.005V-64H149.663V3.06C162.897 2.745 175.817 2.745 188.107 2.745V-64H236.635V4.005C317.9340000000001 8.417 372.2820000000001 28.899 379.5300000000001 105.472C385.201 166.918 356.2100000000001 194.334 310.2040000000001 205.362zM150.608 313.447C178.023 313.447 263.7340000000001 321.954 263.7340000000001 264.919C263.7340000000001 210.404 178.0240000000001 216.707 150.608 216.707V313.447zM150.608 61.671V168.179C183.38 168.179 283.735 177.317 283.735 114.924C283.7340000000001 54.738 183.38 61.671 150.608 61.671z" />
    <glyph glyph-name="buromobelexperte"
      unicode="&#xF37F;"
      horiz-adv-x="448" d=" M0 416V288H128V416H0zM120 296H8V408H120V296zM160 416V288H288V416H160zM280 296H168V408H280V296zM320 416V288H448V416H320zM440 296H328V408H440V296zM0 256V128H128V256H0zM120 136H8V248H120V136zM160 256V128H288V256H160zM280 136H168V248H280V136zM320 256V128H448V256H320zM440 136H328V248H440V136zM0 96V-32H128V96H0zM120 -24H8V88H120V-24zM160 96V-32H288V96H160zM280 -24H168V88H280V-24zM320 96V-32H448V96H320z" />
    <glyph glyph-name="buysellads"
      unicode="&#xF20D;"
      horiz-adv-x="448" d=" M224 297.3L266.9 136.6H181.1L224 297.3zM448 368V16C448 -10.5 426.5 -32 400 -32H48C21.5 -32 0 -10.5 0 16V368C0 394.5 21.5 416 48 416H400C426.5 416 448 394.5 448 368zM382.7 42.7L288.2 341.4H159.8L65.3 42.7H156L267.7 134.3L291.9 42.6999999999999H382.7z" />
    <glyph glyph-name="cc-amex"
      unicode="&#xF1F3;"
      horiz-adv-x="576" d=" M576 192.6C538.1 192.8 531.8 193.5 521.5 187.6V192.6C476.2 192.6 468 194.3 456.6 187.4V192.6H378.4000000000001V187.5C367.0000000000001 194 357.0000000000001 192.6 302.7000000000001 192.6V187C296.4000000000001 190.7 288.2000000000001 192.6 278.4000000000001 192.6H220.4C216.9 188.8 207.9 178.9 204.7000000000001 175.4C192.0000000000001 189.5 194.2000000000001 187 189.2000000000001 192.6H106.1000000000001V100.3H188.1000000000001C191.4000000000001 103.8 201.0000000000001 114.1999999999999 204.2000000000001 117.6999999999999C216.9 103.3999999999999 214.5000000000001 105.9999999999999 219.6000000000001 100.3H268.5000000000001C268.5000000000001 115 268.6000000000001 108.6 268.6000000000001 123.3C280.1000000000001 123.1 292.9000000000001 123.5 302.9000000000001 129.5C302.9000000000001 115.6 302.8000000000001 112.3999999999999 302.8000000000001 100.3H342.4000000000001C342.4000000000001 118.8 342.5000000000001 107.6999999999999 342.5000000000001 125.6C348.7000000000001 125.6 350.2000000000001 125.6 351.9000000000001 125.5C352.0000000000001 124.1999999999999 351.9000000000001 125.5 351.9000000000001 100.3C504.7000000000001 100.3 497.8000000000001 99.1999999999999 508.6000000000001 104.8V100.3C543.4000000000001 100.3 563.4000000000001 98.1 576.1000000000001 106.4V16C576.1000000000001 -10.5 554.6000000000001 -32 528.1000000000001 -32H48C21.5 -32 0 -10.5 0 16V219.7H26.6C30.8 229.8 28.8 225 33 235H52.2C56.4 225 54.4 229.8 58.6 219.7H111.5V231.1C113.7 226.1 112.6 228.6 116.6 219.7H146.1C148.5 225.2 148.7 225.5 151.2 231.1V219.7H286.7V244.8C293.1 244.8 294.7 244.9 296.5 244.6C296.5 244.6 296.3 233.7 296.6 219.8H363.1V228.7C370.5 222.8 380.5 219.8 392.8 219.8H419.6C423.8 229.9 421.8 225.1 426 235.1H445C451.5 220.1 445.2 234.6 451.6 219.8H504.4V241.7C516.2 222 512.2 228.8 517.6 219.8H559.2V311.8H519.3000000000001V293.4C507.1000000000001 313.6 513.0000000000001 303.8 508.1000000000001 311.8H464.8000000000001V291.2C458.6000000000001 305.8 460.2 302 456.0000000000001 311.8H423.6000000000001C423.2000000000001 311.8 421.3000000000001 311.6 421.3000000000001 312.1H393.7000000000001C380.9000000000001 312.1 370.6 308.9 363.0000000000001 302.8V312.1H323.1000000000001V306.8C312.3000000000001 312.9 302.4000000000001 311.9 258.7000000000001 312.1C258.6 312.1 247.1000000000001 312.2 247.1000000000001 312.1H144.1000000000001C141.6000000000001 306 137.3000000000001 295.7 131.5000000000001 282.1C128.7000000000001 288.1 120.5000000000001 305.9 117.6000000000001 312.1H71.6000000000001V291C64.2000000000001 308.4 66.9000000000001 302 62.6000000000001 312.1H22.9C19.5 304.2 9.2 280.1 -0.2 258.2V368C-0.2 394.5 21.3 416 47.8 416H527.8C554.3 416 575.8 394.5 575.8 368V192.6zM389.4 273.2C389.1 273 388 271 388 265.6C388 259.6 388.9 257.9 389.1 257.7C389.3 257.6 390.2000000000001 257.2 392.5 257.2L399.8 274.1C398.7 274.1 397.7 274.2 396.7 274.2C391.1 274.2 389.7 273.5 389.4 273.2zM369.5 142.3C378.7 139 380.5 132.8 380.5 123.9L380.4 110.1H363.8L363.9 121.6C363.9 133.4 360.1 135.4 349.1 135.4H331.5L331.3999999999999 110.1H314.7999999999999L314.8999999999999 179.4H354.2999999999999C367.2999999999999 179.4 381.3999999999999 177.1 381.3999999999999 160.7C381.2999999999999 153.1 377.2 145.4 369.5 142.3zM363.2 157.6999999999999C363.2 164.0999999999999 357.6 165.0999999999999 352.5 165.0999999999999H331.5V149.4999999999999H352.2C357.8 149.4999999999999 363.2 150.7999999999999 363.2 157.6999999999999zM544.9 164.8H575V179.4H542.1C529.3000000000001 179.4 518.3000000000001 172.8 518.3000000000001 158.7C518.3000000000001 125.7 561.0000000000001 145.9 561.0000000000001 131.3C561.0000000000001 126.2 556.7000000000002 124.9 552.6000000000001 124.9H520.6000000000001L520.5000000000001 110.1H552.5000000000001C560.9000000000001 110.1 570.1000000000001 111.9 575.0000000000001 119V144.8C564.5000000000001 158.6 535.7000000000002 146.1 535.7000000000002 158.3C535.7000000000002 164.1 540.3000000000002 164.8 544.9000000000002 164.8zM445.7 165.1V179.4H390.5L390.4 110.1H445.6L445.7 124.4L407.1 124.7V138.5H445V152.6H407.2V165.1H445.7zM487.9 125H455.7L455.6 110.1999999999999H487.8C502.6 110.1999999999999 514 115.8 514 132.1999999999999C514 165.3999999999999 471.1 143.3999999999999 471.1 158.5C471.1 164.1 476 164.8999999999999 480.3 164.8999999999999H510.7V179.5H477.5C464.7 179.5 454 172.8999999999999 454 158.8C454 125.8 496.7 146.3 496.7 131.4C496.6 126 492 125 487.9 125zM409.8 283.7C392.4 284 376.6 287.8 376.6 264C376.6 252.2 379.4 244.1 392.7 244.1H400.1L423.6 298.5999999999999H448.4L476.3 233.2V298.5999999999999H501.6L530.6999999999999 250.5V298.5999999999999H547.5999999999999V229.6H524L492.8 281.5V229.6H459.1L452.5 244.9H418.2L411.8 229.6H392.6C369.8 229.6 359.6 241.4 359.6 263.5999999999999C359.6 286.9 370.1 298.8999999999999 393.6 298.8999999999999H409.7000000000001V283.7zM424.1 259.2H446.9L435.7 286.8L424.1 259.2zM351.5 298.8H334.6V229.5H351.5V298.8zM313.4 261.5C322.9 258.2 324.4 252.3 324.4 243.1V229.6H307.8C307.5 244.4 311.4 254.7 293 254.7H275V229.6H258.6V298.8999999999999L297.7 298.5999999999999C311 298.5999999999999 325.1 296.5999999999999 325.1 280.2C325.2 272.2 320.8 264.4999999999999 313.4 261.4999999999999zM306.7 276.8C306.7 283.2 301.1 284.2 296 284.2H275V268.9H295.7C301.4 268.9 306.7 270.2 306.7 276.8zM247.2 284.2V298.8H191.7V229.5H247.2V243.8H208.3V257.6H246.1V271.7H208.3V284.2H247.2zM162.6 229.5V283.7L138.6 229.5H124L100 283.7V229.5H66.2L59.8 244.8H25.3L18.9 229.5H1L30.7 298.8H55.2L83.3 233.1V298.8H110.4L132.1 251.8L151.8 298.8H179.4V229.5H162.6zM53.9 259.2L42.4 286.8L31.2 259.2H53.9zM306.9 156.7C306.9 128.8 276.5 133.4 257.6 133.4L257.5 110.1H225.3L204.9 133.1L183.5999999999999 110.1H118.1999999999999L118.2999999999999 179.4H184.7999999999999L205.2999999999999 156.6L226.3 179.4H279C294.6 179.4 306.9 174 306.9 156.7zM194.2 144.9L176.3 165.1H134.6V152.6H170.9V138.5H134.6V124.6999999999999H175.2L194.2 144.8999999999999zM241 172L215.7 144.6L241 116.5V172zM289.3 156.7C289.3 162.8 284.7 165.1 279.1 165.1H257.6V147.5H278.8C284.7 147.5 289.3 150.3 289.3 156.6999999999999z" />
    <glyph glyph-name="cc-apple-pay"
      unicode="&#xF416;"
      horiz-adv-x="576" d=" M302.2 229.6C302.2 212.4 291.7 202.5 273.2 202.5H248.9V256.7H273.3C291.7 256.7 302.2 246.9 302.2 229.6zM349.7 167C349.7 158.7 356.9 153.3 368.2 153.3C382.6 153.3 393.4 162.4 393.4 175.2V182.9L369.9 181.4C356.6 180.5 349.7 175.6 349.7 167zM576 369V17C576 -9.5 554.5 -31 528 -31H48C21.5 -31 0 -9.5 0 17V369C0 395.5 21.5 417 48 417H528C554.5 417 576 395.5 576 369zM127.8 250.8C136.2 250.1 144.6 255 149.9 261.2000000000001C155.1 267.6 158.5 276.2000000000001 157.6 284.9C150.2 284.6 141 280 135.7 273.6C130.9 268.1 126.8 259.2 127.8 250.8zM188.4 176.3C188.2 176.5 168.8 183.9 168.6 206.3C168.4 225 183.9 234 184.6 234.5C175.8 247.5 162.2 248.9 157.5 249.2C145.3 249.9 134.9 242.3 129.1 242.3C123.2 242.3 114.4 248.9 104.8 248.7C92.3 248.5 80.6 241.4 74.3 230.1C61.2 207.5 70.9 174.1 83.6 155.7C89.8 146.6 97.3 136.6 107.1 137C116.4 137.4 120.1 143 131.3 143C142.6 143 145.8 137 155.6 137.1C165.8 137.3 172.1 146.2000000000001 178.4 155.3C185.3 165.7 188.2 175.7 188.4 176.3zM323.8 229.7C323.8 256.3 305.3 274.5 278.9000000000001 274.5H227.7000000000001V138.1H248.9000000000001V184.7000000000001H278.2000000000001C305.0000000000001 184.7000000000001 323.8000000000001 203.1000000000001 323.8000000000001 229.7000000000001zM413.8 206C413.8 225.7 398 238.4000000000001 373.8 238.4000000000001C351.3 238.4000000000001 334.7 225.5000000000001 334.1 207.9H353.2000000000001C354.8000000000001 216.3000000000001 362.6 221.8000000000001 373.2000000000001 221.8000000000001C386.2000000000001 221.8000000000001 393.4000000000001 215.8000000000001 393.4000000000001 204.6000000000001V197.1000000000001L367.0000000000001 195.5000000000001C342.4000000000001 194.0000000000001 329.1000000000001 183.9 329.1000000000001 166.4C329.1000000000001 148.7000000000001 342.8000000000001 137.0000000000001 362.5000000000001 137.0000000000001C375.8000000000001 137.0000000000001 388.1000000000001 143.7000000000001 393.7000000000001 154.4H394.1V138H413.7000000000001V206zM516 237.1H494.5L469.6 156.5H469.2L444.3000000000001 237.1H422L457.9 137.8L456 131.8C452.8 121.6 447.5 117.6 438.1 117.6C436.4000000000001 117.6 433.2000000000001 117.8 431.9000000000001 117.9V101.5000000000001C433.1 101.1000000000001 438.4000000000001 101.0000000000001 440.0000000000001 101.0000000000001C460.7 101.0000000000001 470.4 108.9 478.9 132.8000000000001L516 237.1z" />
    <glyph glyph-name="cc-diners-club"
      unicode="&#xF24C;"
      horiz-adv-x="576" d=" M239.7 368.1C142.8 368.1 63.9 289.5 63.9 192.3C63.9 95.4 142.8 16.5 239.7 16.5C336.9 16.5 415.5 95.4 415.5 192.3C415.5 289.5 336.9 368.1 239.7 368.1zM199.8 88.5C158.1 104.4 128.4 144.9 128.4 192.3S158.1 280.2000000000001 199.8 296.4V88.5zM279.6 88.2V296.4C321.3 280.2000000000001 351 239.7 351 192.3S321.3 104.4 279.6 88.2000000000001zM528 416H48C21.5 416 0 394.5 0 368V16C0 -10.5 21.5 -32 48 -32H528C554.5 -32 576 -10.5 576 16V368C576 394.5 554.5 416 528 416zM329.7 0H239.4C133.2 0 45.6 85.5 45.6 190.2C45.6 304.8 133.2 384 239.4 384H329.7C434.7 384 530.4 304.8 530.4 190.2C530.4 85.5 434.7 0 329.7 0z" />
    <glyph glyph-name="cc-discover"
      unicode="&#xF1F2;"
      horiz-adv-x="576" d=" M83 235.9C83 228 79.8 220.4 74.1 215.2C69.2 210.8 62.5 208.8 52.2 208.8H48V263H52.2C62.5 263 68.9 261.3 74.1 256.4C79.8 251.4 83 243.8 83 235.9zM504.8 264H499.9V239.1H504.6C514.9 239.1 520.4 243.5 520.4 251.9C520.4 259.8 514.9 264 504.8 264zM576 368V16C576 -10.5 554.5 -32 528 -32H48C21.5 -32 0 -10.5 0 16V368C0 394.5 21.5 416 48 416H528C554.5 416 576 394.5 576 368zM428 195H473.3V208.8H444V231H472.3V244.8H444V263H473.3V277H428V195zM341.8 277L376.8 192.8H385.4000000000001L420.9000000000001 277H403.4000000000001L381.2000000000001 221.8L359.3000000000001 277H341.8000000000001zM258.8 235.4C258.8 210.8 278.7 190.8 303.4000000000001 190.8C328.0000000000001 190.8 348.0000000000001 210.7 348.0000000000001 235.4C348.0000000000001 260 328.1000000000001 280 303.4000000000001 280C278.8 280 258.8 260.1 258.8 235.4zM190.8 235.9C190.8 203.4 224.4 183.4 254.1 197.7V216.7C234.8 197.4 207.3 210.9 207.3 235.9C207.3 259.6 234 275 254.1 254.9V273.9C223.9 288.9 190.8 267.1 190.8 235.9zM156.9 207.6C149.3 207.6 143.1 211.3 139.4 218.4L129.1 208.5C146.9 182.4 185.7 190.3 185.7 219.8C185.7 232.9 180.3 238.8 162.1 245.4C152.5 248.8 149.8 251.3 149.8 255.7C149.8 264.4 164.3 269.8 174.7 258.2000000000001L183.1 269C164 286.1 133.4 277.9000000000001 133.4 254.7C133.4 243.4 138.6 237.5000000000001 153.6 232.0000000000001C179.3 222.9 168.3 207.6 156.9 207.6zM99.5 235.9C99.5 260 81.5 277 55.4 277H32V195H55.4C86.3 195 99.5 217.4 99.5 235.9zM122.9 277H106.9V195H122.9V277zM544 160C510.7 139.2 317.6 35.6 128 0H529C537.2 0 544 6.8 544 15V160zM544 195L518.1 229.5C530.2 232 536.8000000000001 240.1 536.8000000000001 252.7C536.8000000000001 281.2 506.5000000000001 277.1 483.9000000000001 277.1V195.1H499.9000000000001V227.9H502.1000000000001L524.3000000000001 195.1H544z" />
    <glyph glyph-name="cc-jcb"
      unicode="&#xF24B;"
      horiz-adv-x="576" d=" M431.5 203.7V236C472.7 236 470 235.8 470 235.8C477.3 234.5 483.3 228.5 483.3 219.8C483.3 211 477.3 205.3 470 204C468.8 203.6 466.7 203.7 431.5 203.7zM474.3 183.5C471.5 184.2 471 184 431.5 184V149C471.1 149 471.5 148.8 474.3 149.5C481.8 151 487.8 157.5 487.8 166.5C487.8 175.2 481.8 182 474.3 183.5zM576 368V16C576 -10.5 554.5 -32 528 -32H48C21.5 -32 0 -10.5 0 16V368C0 394.5 21.5 416 48 416H528C554.5 416 576 394.5 576 368zM182 255.7H125C125 188.6 135.7 146 89.2 146C69.7 146 50.4 151.7 32 160.8V132.8C62 124.5 100 124.5 100 124.5C197.9 124.5 182 172.2 182 255.7zM360.5 251.2C297.1 267.2 195.5 266.1 195.5 191.9C195.5 114.8 303.7 118.3 360.5 132.7V161C312.9 136.3 253 139 253 192S312.8 247.6 360.5 223.2V251.2zM544 161.5C544 180 527.5 192 506 193.5V194.3C525.5 197 536.3 209.8 536.3 224.5C536.3 243.5 520.5999999999999 254.5 499.3 255.5C499.3 255.5 505.6 255.8 379 255.8V128.3H501.6999999999999C525.9999999999999 128.2 543.9999999999999 141.2 543.9999999999999 161.5z" />
    <glyph glyph-name="cc-mastercard"
      unicode="&#xF1F1;"
      horiz-adv-x="576" d=" M482.9 37.7C482.9 30.9 478.3 26 471.7 26C464.9 26 460.5 31.2 460.5 37.7C460.5 44.2 464.9 49.4 471.7 49.4C478.3 49.4 482.9 44.2 482.9 37.7zM172.1 49.4C165 49.4 160.9 44.2 160.9 37.7C160.9 31.2 165 26 172.1 26C178.6 26 183 30.9 183 37.7C182.9 44.2 178.6 49.4 172.1 49.4zM289.6 49.7C284.2 49.7 280.9 46.2 280.1 41H299.2C298.3 46.7 294.8 49.7 289.6 49.7zM397.4 49.4C390.6 49.4 386.5 44.2 386.5 37.7C386.5 31.2 390.6 26 397.4 26C404.2 26 408.6 30.9 408.6 37.7C408.6 44.2 404.2 49.4 397.4 49.4zM503.3 23.3C503.3 22.9999999999999 503.6 22.8 503.6 22.1999999999999C503.6 21.8999999999999 503.3 21.6999999999999 503.3 21.0999999999999C502.9999999999999 20.7999999999999 502.9999999999999 20.5999999999999 502.8 20.2999999999999C502.4999999999999 19.9999999999999 502.3 19.7999999999999 501.6999999999999 19.7999999999999C501.3999999999999 19.4999999999999 501.1999999999999 19.4999999999999 500.5999999999999 19.4999999999999C500.2999999999999 19.4999999999999 500.0999999999999 19.4999999999999 499.4999999999999 19.7999999999999C499.1999999999999 19.7999999999999 498.9999999999999 20.0999999999999 498.6999999999999 20.2999999999999C498.3999999999999 20.5999999999999 498.1999999999999 20.7999999999999 498.1999999999999 21.0999999999999C497.8999999999999 21.5999999999999 497.8999999999999 21.8999999999999 497.8999999999999 22.1999999999999C497.8999999999999 22.6999999999999 497.8999999999999 22.9999999999999 498.1999999999999 23.3C498.1999999999999 23.8 498.4999999999999 24.1 498.6999999999999 24.4C498.9999999999999 24.7 499.1999999999999 24.7 499.4999999999999 24.9C499.9999999999999 25.2 500.2999999999999 25.2 500.5999999999999 25.2C501.0999999999999 25.2 501.3999999999999 25.2 501.6999999999999 24.9C502.1999999999999 24.6 502.4999999999999 24.6 502.8 24.4S502.9999999999999 23.8 503.3 23.3zM501.1 21.9C501.6 21.9 501.6 22.2 501.9 22.2C502.2 22.5 502.2 22.7 502.2 23C502.2 23.3 502.2 23.5 501.9 23.8C501.6 23.8 501.4 24.1 500.8 24.1H499.1999999999999V20.6H499.9999999999999V22H500.3L501.4 20.6H502.2L501.1 21.9zM576 367V15C576 -11.5 554.5 -33 528 -33H48C21.5 -33 0 -11.5 0 15V367C0 393.5 21.5 415 48 415H528C554.5 415 576 393.5 576 367zM64 227.4C64 150.9 126.1 88.9 202.5 88.9C229.7 88.9 256.4 97.1 279 112C206.1 171.3 206.6 283.2 279 342.5C256.4 357.5 229.7 365.6 202.5 365.6C126.1 365.7 64 303.6 64 227.4zM288 118.6C358.5 173.6 358.2 280.8 288 336.1C217.8 280.8 217.5 173.5 288 118.6zM145.7 42.3C145.7 51 140 56.7 131 57C126.4 57 121.5 55.6 118.2 50.5C115.8 54.6 111.7 57 106 57C102.2 57 98.4 55.6 95.4 51.6V56H87.2V19.3H95.4C95.4 38.2 92.9 49.5 104.4 49.5C114.6 49.5 112.6 39.3 112.6 19.3H120.5C120.5 37.6 118 49.5 129.5 49.5C139.7 49.5 137.7 39.5 137.7 19.3H145.9V42.3zM190.6 56H182.7V51.6C180 54.9 176.2 57 171 57C160.7 57 152.8 48.8 152.8 37.7C152.8 26.5 160.7 18.4 171 18.4C176.2 18.4 180 20.3 182.7 23.8V19.1999999999999H190.6V56zM231.1 30.4C231.1 45.4 208.2 38.6 208.2 45.6C208.2 51.3 220.1 50.4 226.7 46.7L230 53.2C220.6 59.3 199.8 59.2 199.8 45C199.8 30.7 222.7 36.7 222.7 30C222.7 23.7 209.2 24.2 202 29.2L198.5 22.9C209.7 15.3 231.1 16.9 231.1 30.4zM266.5 21.1L264.3 27.9C260.5 25.8 252.1 23.5 252.1 32V48.6H265.2000000000001V56H252.1000000000001V67.2H243.9000000000001V56H236.3000000000001V48.7H243.9000000000001V32C243.9000000000001 14.4 261.2000000000001 17.6 266.5000000000001 21.1zM279.8 34.4999999999999H307.3C307.3 50.6999999999999 299.9000000000001 57.1 289.9000000000001 57.1C279.3 57.1 271.7000000000001 49.2 271.7000000000001 37.8C271.7000000000001 17.3 294.3000000000001 13.9 305.5000000000001 23.6L301.7000000000001 29.6C293.9000000000001 23.2 282.1 23.8 279.8000000000001 34.4999999999999zM338.9000000000001 55.9999999999999C334.3 57.9999999999999 327.3 57.8 323.7000000000001 51.6V56H315.5000000000001V19.3H323.7000000000001V40C323.7000000000001 51.6 333.2000000000001 50.1 336.5000000000001 48.4L338.9000000000001 56zM349.5000000000001 37.6999999999999C349.5000000000001 49.0999999999999 361.1000000000001 52.8 370.2000000000001 46.0999999999999L374.0000000000001 52.5999999999999C362.4000000000001 61.6999999999999 341.3000000000001 56.6999999999999 341.3000000000001 37.5999999999999C341.3000000000001 17.7999999999999 363.7000000000001 13.7999999999999 374.0000000000001 22.5999999999999L370.2000000000001 29.0999999999999C361.0000000000001 22.5999999999999 349.5000000000001 26.4999999999999 349.5000000000001 37.6999999999999zM416.2000000000001 55.9999999999999H408V51.6C399.7 62.6 378.1 56.4 378.1 37.7C378.1 18.5 400.5 13 408 23.8V19.2H416.2V56zM449.9000000000001 55.9999999999999C447.5000000000001 57.1999999999999 438.9000000000001 58.8999999999999 434.7000000000001 51.6V56H426.8000000000001V19.3H434.7000000000001V40C434.7000000000001 51 443.7000000000001 50.3 447.5000000000001 48.4L449.9000000000001 56zM490.2 70.8999999999999H482.3000000000001V51.5999999999999C474.1000000000001 62.4999999999999 452.4000000000001 56.6999999999999 452.4000000000001 37.6999999999999C452.4000000000001 18.3 474.9000000000001 13.0999999999999 482.3000000000001 23.8V19.1999999999999H490.2V70.8999999999999zM497.8000000000001 145.9999999999999V141.3999999999999H498.6000000000001V146H500.5000000000001V146.8H495.9V146H497.8zM504.4000000000001 22.1999999999999C504.4000000000001 22.6999999999999 504.4000000000001 23.2999999999999 504.1000000000001 23.7999999999999C503.8000000000001 24.0999999999999 503.6000000000001 24.5999999999999 503.3000000000001 24.8999999999999C503.0000000000001 25.1999999999999 502.5000000000001 25.3999999999999 502.2 25.6999999999999C501.7 25.6999999999999 501.1 25.9999999999999 500.6 25.9999999999999C500.3 25.9999999999999 499.8 25.6999999999999 499.2 25.6999999999999C498.7 25.3999999999999 498.4 25.1999999999999 498.1 24.8999999999999C497.6 24.5999999999999 497.3 24.0999999999999 497.3 23.7999999999999C497 23.2999999999999 497 22.6999999999999 497 22.1999999999999C497 21.8999999999999 497 21.3999999999999 497.3 20.7999999999999C497.3 20.4999999999999 497.6 19.9999999999999 498.1 19.6999999999999C498.4 19.3999999999999 498.6 19.1999999999999 499.2 18.8999999999999C499.7 18.5999999999999 500.3000000000001 18.5999999999999 500.6 18.5999999999999C501.1 18.5999999999999 501.7 18.5999999999999 502.2 18.8999999999999C502.5000000000001 19.1999999999999 503.0000000000001 19.3999999999999 503.3000000000001 19.6999999999999C503.6000000000001 19.9999999999999 503.8000000000001 20.4999999999999 504.1000000000001 20.7999999999999C504.4000000000001 21.3999999999999 504.4000000000001 21.8999999999999 504.4000000000001 22.1999999999999zM507.6000000000001 146.8999999999999H506.2000000000001L504.6000000000001 143.3999999999999L503.0000000000001 146.8999999999999H501.6000000000001V141.4999999999999H502.4000000000001V145.5999999999999L504.0000000000001 142.0999999999999H505.1000000000001L506.5000000000001 145.5999999999999V141.4999999999999H507.6000000000001V146.8999999999999zM512.0000000000001 227.3999999999999C512.0000000000001 303.5999999999999 449.9000000000001 365.6999999999999 373.5000000000001 365.6999999999999C346.3000000000002 365.6999999999999 319.6000000000002 357.4999999999999 297.0000000000001 342.5999999999999C369.1000000000002 283.2999999999999 370.2000000000001 171.0999999999999 297.0000000000001 112.0999999999999C319.6000000000002 97.0999999999999 346.5000000000001 88.9999999999999 373.5000000000001 88.9999999999999C449.9000000000001 88.8999999999999 512.0000000000001 150.8999999999999 512.0000000000001 227.3999999999999z" />
    <glyph glyph-name="cc-paypal"
      unicode="&#xF1F4;"
      horiz-adv-x="576" d=" M186.3 189.8C186.3 177.6 176.6 168.3 164.3 168.3C155.1 168.3 148.3 173.5 148.3 183.3C148.3 195.5 157.8 205.3 170 205.3C179.3 205.3 186.3 199.6 186.3 189.8zM80.5 238.3H75.8C74.3 238.3 72.8 237.3 72.6 235.6L68.3 208.9L76.5 209.2000000000001C87.5 209.2000000000001 96 210.7000000000001 98 223.4C100.3 236.8000000000001 91.8 238.3000000000001 80.5 238.3000000000001zM364.5 238.3H360C358.2 238.3 357 237.3 356.8 235.6L352.6 208.9L360.6 209.2000000000001C373.6 209.2000000000001 382.6 212.2000000000001 382.6 227.2000000000001C382.5 237.8000000000001 373 238.3000000000001 364.5 238.3000000000001zM576 368V16C576 -10.5 554.5 -32 528 -32H48C21.5 -32 0 -10.5 0 16V368C0 394.5 21.5 416 48 416H528C554.5 416 576 394.5 576 368zM128.3 232.6C128.3 253.6 112.1 260.6 93.6 260.6H53.6C51.1 260.6 48.6 258.6 48.4 255.9L32 153.8C31.7 151.8 33.2 149.8 35.2 149.8H54.2C56.9 149.8 59.4 152.7 59.7 155.5L64.2 182.1C65.2 189.3 77.4 186.8 82.2 186.8C110.8 186.8 128.3 203.8 128.3 232.6zM212.5 223.8H193.5C189.7 223.8 189.5 218.3 189.3 215.6C183.5 224.1 175.1 225.6 165.6 225.6C141.1 225.6 122.4 204.1 122.4 180.4C122.4 160.9 134.6 148.2 154.1 148.2C163.1 148.2 174.3 153.1 180.6 160.1C180.1 158.6 179.6 155.4 179.6 153.9C179.6 151.6 180.6 149.9 182.8 149.9H200C202.7 149.9 205 152.8 205.5 155.6L215.7 219.9C216 221.8 214.5 223.8 212.5 223.8zM253 125.9L316.7 218.5C317.2 219 317.2 219.5 317.2 220.2C317.2 221.9 315.7 223.7 314 223.7H294.8C293.1 223.7 291.3 222.7 290.3 221.2L263.8 182.1999999999999L252.8 219.6999999999999C252 221.8999999999999 249.8 223.6999999999999 247.3 223.6999999999999H228.6C226.9000000000001 223.6999999999999 225.4000000000001 221.8999999999999 225.4000000000001 220.1999999999999C225.4000000000001 219 244.9000000000001 163.3999999999999 246.6 158.0999999999999C243.9000000000001 154.2999999999999 226.1 129.4999999999999 226.1 126.4999999999999C226.1 124.6999999999999 227.6 123.2999999999999 229.3 123.2999999999999H248.5C250.3 123.3999999999999 252 124.3999999999999 253 125.8999999999999zM412.3 232.6C412.3 253.6 396.1 260.6 377.6 260.6H337.9000000000001C335.2000000000001 260.6 332.7000000000001 258.6 332.4000000000001 255.9L316.2000000000001 153.9C316.0000000000001 151.9 317.5000000000001 149.9 319.4000000000001 149.9H339.9000000000001C341.9000000000001 149.9 343.4000000000001 151.4 343.9000000000001 153.1L348.4000000000001 182.1C349.4000000000001 189.3 361.6 186.8 366.4000000000001 186.8C394.8 186.8 412.3 203.8 412.3 232.6zM496.5 223.8H477.5C473.7 223.8 473.5 218.3 473.2 215.6C467.7 224.1 459.2 225.6 449.5 225.6C425 225.6 406.3 204.1 406.3 180.4C406.3 160.9 418.5 148.2 438 148.2C447.3 148.2 458.5 153.1 464.5 160.1C464.2 158.6 463.5 155.4 463.5 153.9C463.5 151.6 464.5 149.9 466.7 149.9H484C486.7 149.9 489 152.8 489.5 155.6L499.7 219.9C500 221.8 498.5 223.8 496.5 223.8zM544 257.1C544 259.1 542.5 260.6 540.8 260.6H522.3C520.8 260.6 519.3 259.4 519.0999999999999 257.9L502.8999999999999 153.9L502.5999999999999 153.4C502.5999999999999 151.6 504.0999999999999 149.9 506.0999999999999 149.9H522.5999999999999C525.0999999999999 149.9 527.5999999999999 152.8 527.8 155.6L544 256.8V257.1zM454 205.3C441.8 205.3 432.3 195.6 432.3 183.3C432.3 173.6 439.3 168.3 448.5 168.3C460.5 168.3 470.2 177.5 470.2 189.8C470.3 199.6 463.3 205.3 454 205.3z" />
    <glyph glyph-name="cc-stripe"
      unicode="&#xF1F5;"
      horiz-adv-x="576" d=" M396.9 191.5C396.9 172.4 388.1 158.1 375 158.1C366.7 158.1 361.7 161.1 358.2 164.8L358 217.6C361.7 221.7 366.8 224.6 375 224.6C387.9 224.7 396.9 210.1 396.9 191.5zM576 368V16C576 -10.5 554.5 -32 528 -32H48C21.5 -32 0 -10.5 0 16V368C0 394.5 21.5 416 48 416H528C554.5 416 576 394.5 576 368zM122.2 166.9C122.2 209.2 67.9 201.6 67.9 217.6C67.9 223.1 72.5 225.3 80 225.3C90.8 225.3 104.5 222 115.3 216.2V249.6C103.5 254.3 91.8 256.1 80 256.1C51.2 256.1 32 241.1 32 215.9C32 176.6 86 183 86 166C86 159.4 80.3 157.3 72.4 157.3C60.6 157.3 45.5 162.2 33.5 168.6V134.7000000000001C46.7 129.0000000000001 60.1 126.6 72.3 126.6C101.9 126.8 122.2 141.3 122.2 166.9zM191.1 253.8H164.1V284.6L129.4 277.2L129.2000000000001 163.3C129.2000000000001 142.3 145.0000000000001 126.8 166.1000000000001 126.8C177.7000000000001 126.8 186.3000000000001 128.9 191.0000000000001 131.5V160.3999999999999C186.5000000000001 158.5999999999999 164.0000000000001 152.0999999999999 164.0000000000001 173V223.5H191.0000000000001V253.8zM264.9000000000001 253.8C260.2000000000001 255.5 243.6 258.6 235.3000000000001 243.3L233.1000000000001 253.8H202.4000000000001V129.3H237.9000000000001V213.7C246.3000000000001 224.7 260.5000000000001 222.6 265.0000000000001 221.1V253.8zM309.1 253.8H273.4000000000001V129.3H309.1V253.8zM309.1 301.1L273.4000000000001 293.5V264.6L309.1 272.2V301.1zM431.8 192.3C431.8 233.6 408.3 256.1 383.4000000000001 256.1C369.5000000000001 256.1 360.5000000000001 249.5 355.6 245L353.8 253.8H322.5V88L358 95.5L358.1 135.7C363.2000000000001 132 370.8 126.7 383.2000000000001 126.7C408.6 126.8 431.8000000000001 147.2 431.8000000000001 192.3zM544 191.1C544 227.5 526.4 256.2 492.7 256.2C458.9 256.2 438.4 227.5 438.4 191.3C438.4 148.5 462.6 126.8 497.2 126.8C514.2 126.8 526.9 130.6999999999999 536.6 136V164.6C526.9 159.7 515.8000000000001 156.7 501.7 156.7C487.9 156.7 475.7 161.6 474.1 178.2H543.6C543.7 180.2 544 187.6 544 191.1zM492.4 227.2C483.5 227.2 473.7 220.5 473.7 204.5H510.4C510.4 220.5 501.1 227.2 492.4 227.2z" />
    <glyph glyph-name="cc-visa"
      unicode="&#xF1F0;"
      horiz-adv-x="576" d=" M470.1 216.7S477.7 179.5 479.4 171.7H446C449.3 180.6 462 215.2 462 215.2C461.8 214.9 465.3 224.3 467.3 230.1L470.1 216.7zM576 368V16C576 -10.5 554.5 -32 528 -32H48C21.5 -32 0 -10.5 0 16V368C0 394.5 21.5 416 48 416H528C554.5 416 576 394.5 576 368zM152.5 116.8L215.7 272H173.2L133.9 166L129.6 187.5L115.6 258.9C113.3 268.8 106.2 271.6 97.4 272H32.7L32 268.9C47.8 264.9 61.9 259.1 74.2 251.8L110 116.8H152.5zM246.9 116.6L272.1 272H231.9000000000001L206.8000000000001 116.6H246.9000000000001zM386.8 167.4C387 185.1 376.2 198.6 353.1 209.7000000000001C339 216.8000000000001 330.4000000000001 221.6000000000001 330.4000000000001 228.9000000000001C330.6 235.5000000000001 337.7000000000001 242.3000000000001 353.5000000000001 242.3000000000001C366.6000000000001 242.6000000000001 376.2000000000001 239.5000000000001 383.4000000000001 236.4000000000001L387.0000000000001 234.7000000000001L392.5000000000001 268.3000000000001C384.6000000000001 271.4000000000001 372.0000000000001 274.9000000000001 356.5000000000001 274.9000000000001C316.8000000000001 274.9000000000001 288.9000000000001 253.7000000000001 288.7000000000001 223.5C288.4000000000001 201.2 308.7000000000001 188.8 323.9000000000001 181.3C339.4000000000001 173.7 344.7000000000001 168.7 344.7000000000001 162C344.5000000000001 151.6 332.1 146.8 320.6 146.8C304.6 146.8 296 149.3 282.9000000000001 155.1L277.6 157.6L272 122.7000000000001C281.4 118.4 298.8 114.6 316.8 114.4C359 114.3 386.5 135.2000000000001 386.8 167.4zM528 116.6L495.6 272H464.5C454.9 272 447.6 269.2 443.5 259.1L383.8 116.6H426S432.9 135.8 434.4 139.9H486C487.2 134.4 490.8 116.6 490.8 116.6H528z" />
    <glyph glyph-name="centercode"
      unicode="&#xF380;"
      horiz-adv-x="512" d=" M329.2 179.4C325.4 144.2 293.8 118.8 258.6 122.6C223.4 126.4 198 158 201.8 193.2C205.6 228.4 237.2 253.8 272.4 250C307.5 246.2 333 214.5999999999999 329.2 179.4zM243.4 -55.7C96.7 -48 -8.2 82.5 10.1 223.7C21.3 310.3 75.9 380.6 149.2 415.7C310.2 492.8 498.9 378.3 503.9 199.1C508 52.1 385.5 -63.1 243.4 -55.7zM423.3 124.3C451.1999999999999 242.3 262.8 330.2 186.1 358.5C128.6 302.2 117 169.9 152.3 14.1C221.1 -1.7 321.4 40.4999999999999 423.3 124.3z" />
    <glyph glyph-name="chrome"
      unicode="&#xF268;"
      horiz-adv-x="496" d=" M131.5 230.5L55.1 347.9C102.7 407.1 174.1 439.7 247.1 440C289.4 440.3 332.6 429.5 371.9 406.8C415.3 381.6 448.3 345.4 469.3 303.8L264 314.6C205.9 318 150.6 285.3 131.5 230.5zM164.4 192C164.4 145.8 201.8 108.4 248 108.4S331.6 145.8 331.6 192S294.2000000000001 275.6 248.0000000000001 275.6S164.4 238.3 164.4 192zM479.3 281.2L339.6 274C377.5 229.7 378.1 165.8 346.2000000000001 116.8L234.1 -55.6C280.6 -58.1 328.5 -47.9 371.9 -22.7C479.3 39.3 522.8 169.3 479.3 281.2zM133.7 144.4L40.4 327.9C14.9 288.9 0 242.1 0 192C0 68 90.8 -34.7 209.5 -52.9L273.2 71.9C215.6 61.1 160 92.7000000000001 133.7 144.4z" />
    <glyph glyph-name="cloudscale"
      unicode="&#xF383;"
      horiz-adv-x="448" d=" M318.1 294L308.7000000000001 286.4C286.2000000000001 305.7000000000001 257.2000000000001 320 225.4000000000001 320C153.8 320 96 259.2 96 187.7C96 181.1 96.4 174.6 97.4 168.3C95.4 224.3 139.2 265.7000000000001 190 265.7000000000001C214.2 265.7000000000001 236.2 256.3 252.6 241.0000000000001L227.4 220.6C219.1 221.5 210.6 218.8 204.3 212.5C193.2 201.5 193.2 183.6 204.3 172.5C215.4 161.5 233.2 161.5 244.3 172.5C250.6 178.8 253.3 187.4 252.4 195.6L327.6 284.4C333.9000000000001 290.9 324.3 300.3 318.1 294zM234.3 182.5C228.7 177 219.7 177 214.1 182.5C208.5 188.1 208.5 197.1 214.1 202.7S228.7 208.3 234.3 202.7S239.9 188 234.3 182.5zM224 416C100.5 416 0 315.5 0 192S100.5 -32 224 -32S448 68.5 448 192S347.5 416 224 416zM224 32C135.8 32 64 103.8 64 192S135.8 352 224 352S384 280.2 384 192S312.2 32 224 32z" />
    <glyph glyph-name="cloudsmith"
      unicode="&#xF384;"
      horiz-adv-x="332" d=" M332.5 28.1C332.5 -18.3 294.9 -56 248.5 -56S164.5 -18.3 164.5 28.1S202.1 112.1 248.5 112.1S332.5 74.5 332.5 28.1zM248.5 272C294.9 272 328.5 309.6 328.5 356S294.9 440 248.5 440S160.5 402.4000000000001 160.5 356S130.9 280 84.5 280S0.5 238.4000000000001 0.5 192S38.1 112 84.5 112S168.5 145.6 168.5 192S202.1 272 248.5 272z" />
    <glyph glyph-name="cloudversify"
      unicode="&#xF385;"
      horiz-adv-x="616" d=" M148.6 144C156.8 75.5 216 28.5 294.6 32.7C345.8 -10.6 431.4000000000001 -13.1 481 38.3C550.2 37.2 599.5 82.9 612.5 137.8C627.3 200.3 594.3 270.3 520.4 292.9C487.4 381 389 394.4 333.9 377.9C276.6 360.6 249.6 324.7 234.6 268.2C226.8 265.5 208.1 259.3 189.6 244.1C201.3 244.1 204.8 235.2 204.8 224.6V204.2C204.8 193.5 196.1 184.7 185.3 184.7H165.1C154.4 184.7 145.6 190.7 145.6 201.4V208H98.8C95 208 88 203.7 88 196.1V155.7C88 149.3 93.3 143.9 99.7 143.9H148.6zM376 136C365.3 89.7 397.7 63.6 431.3 49.2C324.1 15.4 259.7 100 296 160C262.8 138.4 262.3 88.8 266.8 67.1C248.9 79.5 213 99.5 209.4 146.9C206.4 186.8 230.9 222.6 266.4 240.8000000000001C297 256.6 369.9 249.3 400 200C385.9 248 346.2 270.1 298.2 274.8C329.1 305.5 362.6 325.1 412.4 318.5C482.2 309.2 545.5999999999999 235.7 480.1 168C515.0999999999999 184.3 528.8 222.4 527.5999999999999 244.9L538.0999999999999 225.3C549.8999999999999 203.3 553.3 177.7 547.4999999999999 153.3C538.2999999999998 114.3 506.8999999999999 84.5 467.7999999999999 76.8C435.6999999999999 70.5 384.7 81.9 375.9999999999999 136zM128 240H88.2C79.3 240 72 247.3 72 256.2V295.8C72 304.7 79.3 312 88.2 312H128C136.9 312 144.2 304.7 144.2 295.8V256.2C144.2 247.3 136.9 240 128 240zM10.1 280C4.5 280 0 284.5 0 290.1V317.9C0 323.5 4.5 328 10.1 328H37.8C43.3 328 47.9 323.5 47.9 317.9V290.1C47.9 284.5 43.4 280 37.8 280H10.1zM168 305.3V326.7000000000001C168 331.8 172.2 336 177.3 336H198.7C203.8 336 208 331.8 208 326.7000000000001V305.3C208 300.2000000000001 203.8000000000001 296 198.7 296H177.3C172.2 296 168 300.2 168 305.3zM56 212.5V187.5C56 181.2 50.9 176 44.6 176H19.4C13.1 176 8 181.2 8 187.5V212.5C8 218.8 13.1 224 19.4 224H44.5C50.9 224 56 218.8 56 212.5z" />
    <glyph glyph-name="codepen"
      unicode="&#xF1CB;"
      horiz-adv-x="512" d=" M502.285 288.296L268.2850000000001 444.296C260.298 449.211 251.7740000000001 449.256 243.7140000000001 444.296L9.714 288.296C3.714 284.2970000000001 0 277.153 0 270.011V114.012C0 106.869 3.714 99.726 9.715 95.726L243.715 -60.296C251.702 -65.211 260.226 -65.256 268.286 -60.296L502.286 95.726C508.286 99.725 512.001 106.869 512.001 114.012V270.011C512 277.153 508.286 284.2970000000001 502.285 288.296zM278 384.8690000000001L450.286 270.011L373.429 218.582L278 282.2970000000001V384.8690000000001zM234 384.8690000000001V282.2970000000001L138.571 218.582L61.714 270.011L234 384.8690000000001zM44 228.868L99.143 192.011L44 155.154V228.868zM234 -0.847L61.714 114.011L138.571 165.4400000000001L234 101.725V-0.847zM256 140.011L178.285 192.011L256 244.011L333.7150000000001 192.011L256 140.011zM278 -0.847V101.725L373.429 165.4400000000001L450.286 114.0110000000001L278 -0.847zM468 155.154L412.857 192.011L468 228.868V155.154z" />
    <glyph glyph-name="codiepie"
      unicode="&#xF284;"
      horiz-adv-x="472" d=" M422.5 245.1C453.2 245.1 456 192 422.2 192H411.4V147.7H384.8V245.1H422.5zM472 95.4C429.9 3.5 350.4 -56 248 -56C111 -56 0 55 0 192S111 440 248 440C345.4 440 420.8 386.3 466.2 301.6L280.2 192.8L472 95.4zM433.5 82.9L373.2 113.6C346.1 69.3 302.8 42.1999999999999 250.8 42.1999999999999C168.3 42.1999999999999 101.6 108.8999999999999 101.6 191.0999999999999C101.6 273.5999999999999 168.3 340.2999999999999 250.8 340.2999999999999C299.2 340.2999999999999 339.7 316.7999999999999 367.7 276.8999999999999L427.2 311.4999999999999C386.5 374.0999999999999 322.5 411.4999999999999 248 411.4999999999999C126.8 411.4999999999999 28.5 313.1999999999999 28.5 191.9999999999999S126.8 -27.5 248 -27.5C326.6 -27.5 394.5 14.6 433.5 82.9z" />
    <glyph glyph-name="connectdevelop"
      unicode="&#xF20E;"
      horiz-adv-x="576" d=" M550.5 207L500.411 293.786C501.482 295.928 502.286 298.339 502.286 301.0180000000001C502.286 309.054 495.59 315.751 487.554 316.019L432.107 411.9120000000001C432.643 413.519 433.178 415.126 433.178 416.733C433.178 425.304 426.214 432.001 417.91 432.001C413.089 432.001 409.071 429.858 406.124 426.376H299.518C296.839 429.857 292.8210000000001 432 288 432S279.161 429.857 276.482 426.375H170.411C167.464 429.857 163.447 432 158.625 432C150.322 432 143.357 425.304 143.357 416.732C143.357 415.125 143.893 413.25 144.429 411.911L88.446 314.678C83.09 312.2680000000001 79.339 307.178 79.339 301.017C79.339 300.482 79.607 299.9460000000001 79.607 299.41L26.303 207.267C19.071 205.928 13.713 199.767 13.713 192.267C13.713 185.035 18.802 178.874 25.767 177.267L80.946 81.909C80.41 80.302 80.142 78.963 80.142 77.088C80.142 69.8559999999999 85.231 63.6949999999999 92.196 62.356L143.893 -27.376C143.357 -28.983 142.822 -30.858 142.822 -32.733C142.822 -41.304 149.786 -48.001 158.09 -48.001C162.911 -48.001 166.929 -45.858 169.608 -42.6439999999999H276.483C279.161 -45.857 283.447 -48 288 -48S296.839 -45.857 299.5180000000001 -42.643H406.6610000000001C409.3390000000001 -45.589 413.3570000000001 -47.464 417.6430000000001 -47.464C426.2140000000001 -47.464 432.9110000000001 -40.5 432.9110000000001 -32.196C432.9110000000001 -30.589 432.6440000000001 -29.25 432.1080000000001 -27.911L483.8050000000001 62.357C490.7690000000001 63.696 495.859 69.857 495.859 77.0889999999999C495.859 78.696 495.5910000000001 80.3029999999999 495.0550000000001 81.91L549.9660000000001 177.268C556.9300000000002 178.607 562.2880000000001 184.768 562.2880000000001 192.268C562.2860000000002 199.5 557.1960000000001 205.661 550.5000000000001 207zM153.535 -2.732L109.875 73.071H153.535V-2.732zM153.535 81.107H109.875C109.607 82.178 109.071 83.249 108.536 84.321L153.535 131.731V81.107zM153.535 143.518L103.178 90.2139999999999C101.839 90.7499999999999 100.499 91.5539999999999 99.16 91.821L43.447 188.25C43.982 189.589 43.982 190.929 43.982 192.268S43.982 194.678 43.714 195.75L95.679 285.75C98.358 286.0180000000001 101.036 286.822 103.447 288.429L153.536 236.464V143.518zM153.535 245.84L107.732 293.25C109.071 295.393 109.875 298.071 109.875 301.017C109.875 301.285 109.607 301.821 109.607 302.089L153.535 317.893V245.84zM153.535 326.465L109.875 310.661L153.535 386.197V326.465zM480.054 287.357L480.8579999999999 286.018L445.5 118.875L381.75 186.107L479.786 287.625L480.054 287.357zM291.75 92.893L303.2680000000001 81.107H280.5L291.75 92.893zM291.4820000000001 104.143L208.179 189.589L287.7320000000001 273.964L370.7680000000001 186.375L291.4820000000001 104.1429999999999zM296.8390000000001 98.25L376.1250000000001 180.482L443.6250000000001 109.232L437.7330000000001 81.107H313.714L296.839 98.25zM410.411 403.607C411.4820000000001 403.0710000000001 412.553 402.535 413.8930000000001 402.267L471.75 301.553V301.017C471.75 298.0710000000001 472.553 295.3930000000001 473.893 293.25L376.393 192L293.358 279.589L410.411 403.607zM401.304 405.75L287.7320000000001 285.482L230.6780000000001 345.75L397.0170000000001 405.75H401.3040000000001zM277.821 405.75C280.499 403.072 283.981 401.4650000000001 288 401.4650000000001S295.5 403.072 298.1789999999999 405.75H373.1789999999999L224.786 352.179L173.893 405.75H277.8210000000001zM161.572 400.125L162.643 402.267A33.834 33.834 0 0 1 165.322 403.0710000000001L216.483 349.231L161.572 329.41V400.125zM161.572 320.839L222.375 342.803L282.107 279.589L202.554 195.482L161.572 237.535V320.839zM161.572 228.161L198 190.393L161.572 152.089V228.161zM161.572 140.303L203.625 184.767L286.393 98.785L269.25 81.107H161.572V140.303zM168.536 -21.75C166.929 -20.143 165.054 -19.072 162.643 -18.268L161.572 -16.6609999999999V73.071H261.482L169.875 -21.75H168.536zM298.447 -21.75C295.7680000000001 -19.34 292.019 -17.465 288 -17.465S280.233 -19.34 277.553 -21.75H181.124L272.731 73.071H311.035L402.642 -21.75H298.447zM418.447 -9.964L414.161 -17.464C412.822 -17.732 411.751 -18.267 410.679 -18.803L321.483 73.072H435.8589999999999L418.447 -9.964zM431.303 12.268L444.161 73.071H466.125L431.303 12.268zM466.125 81.107H445.7680000000001L450.3210000000001 102.2670000000001L467.4640000000001 84.0530000000001C466.929 83.2500000000001 466.393 82.179 466.1250000000001 81.107zM532.2860000000001 188.518L476.8390000000001 91.821C475.5000000000001 91.286 474.1600000000001 90.75 472.8210000000001 89.947L452.1960000000001 111.911L486.7500000000001 275.839L532.5530000000001 196.553C532.2860000000001 195.214 531.7500000000001 193.875 531.7500000000001 192.268C531.7500000000001 190.929 532.0180000000001 189.857 532.2860000000001 188.518z" />
    <glyph glyph-name="contao"
      unicode="&#xF26D;"
      horiz-adv-x="512" d=" M45.4 143C59.8 75.9 71.8 14 113.6 -32H34C15.3 -32 0 -16.8 0 2V382C0 400.7 15.2 416 34 416H91.7C77.9 403.4 65.6 388.8 54.8 372.4C9.4 302.4 27.8 225.6 45.4 143zM478 416H387.8C409.2 394.6 427 366.5 440.5 331.9L303.4 302.6C288.5 331.6 265.6 355.9 220.8 346.5C196.2 341.2 179.8 327.2 172.5 311.9C163.7 293.2000000000001 159.3 272.1 180.7 171.6C201.8 71.4 214.4 53.9 230.2 40.4C243.1 29.3 263.6 23.4 288.5 28.7C333 38.1 344.2 69.4 345.9 101.9L483.3 131.5000000000001C486.4999999999999 60.0000000000001 464.6 6.3000000000001 425.9 -32.0999999999999H478C496.7 -32.0999999999999 512 -16.8999999999999 512 1.9000000000001V382C512 400.8 496.8 416 478 416z" />
    <glyph glyph-name="cpanel"
      unicode="&#xF388;"
      horiz-adv-x="640" d=" M52.9 234.3H92.9L86.7 210.7C84.8 204.2 79.3 199.8 72.4 199.8H53.8C28.9 199.8 29.1 162.4 53.8 162.4H65.1C69.3 162.4 72.7 158.5000000000001 71.5 154.1L64.4 128H52C18.5 128 -7 159.4 1.7 193.2C9 220.2 30 234.3 52.9 234.3M73.1 128L108 258.1C109.8 264.5 115.2 269 122.3 269H159.3C183.4 269 204.7 252.6 210.3 227.8C216.9 198.7 195.8 162.5 158.6 162.5H126.6L133 186.3C134.8000000000001 192.5 140.3000000000001 197.1 147.3000000000001 197.1H157.6000000000001C170.0000000000001 197.1 178.4000000000001 208.8 175.9000000000001 219.7C173.8000000000001 228.9 166.0000000000001 234.5000000000001 157.6000000000001 234.5000000000001H137.8000000000001L112 138.8C110.1 132.6 104.6 128.1 97.8 128.1L73.1 128M293.7 197.4C294 198.4 295.6 202.7 291.6 202.7H234.1C224.4 202.7 217.5 211.6 219.9 221.2L223.4 234.6H301.3C320.1 234.6 334.6 217 329.8 197.8L315.8 146C313 135.4 303.6 128.2 292.4 128.2L234.9 128.4C192 128.4 196.4 192.2 235.6 192.2H284L280.5 179C278.6 172.8 273.1 168.2 266.3 168.2H244.7C239.4 168.2 239.4 160.3 244.7 160.3H279.6C284.2000000000001 160.3 284.7000000000001 164.2 285.1 165.6L293.7000000000001 197.4M396.8000000000001 234.3000000000001C431.2000000000001 234.3000000000001 456.1000000000001 202.0000000000001 447.1000000000001 168.9L438.3000000000001 135.8C437.1000000000001 130.9 432.6000000000001 128 428.0000000000001 128H408.9000000000001C404.4000000000001 128 401.3 132 402.5000000000001 136.3L413.1000000000001 176.3C416.4000000000001 187.9 407.5000000000001 199.7 395.0000000000001 199.7H375.2000000000001L358.0000000000001 135.7000000000001C356.8000000000001 130.9 352.4000000000001 127.9 347.6000000000001 127.9H328.7000000000001C324.5000000000001 127.9 321.1000000000001 131.8 322.3000000000002 136.2000000000001L348.5000000000001 234.2000000000001H396.8000000000002M498 196.4L490 166.4C489.1 163.1 491.5 159.7 495.1 159.7H568.4L562.6999999999999 138.7C560.8 132.5 555.3 128 548.4999999999999 128H481.7999999999999C461.7999999999999 128 448.4999999999999 147 453.4999999999999 164.7L464.2999999999999 204.7C469.0999999999999 222.3 484.9999999999999 234.3 502.8999999999999 234.3H550.1999999999999C569.1999999999999 234.3 583.4 216.6 578.4999999999999 197.5L575.2999999999998 185.5C572.3999999999999 174.5 562.5999999999998 167.9 552.0999999999998 167.9H498.6999999999998L502.1999999999998 180.9C503.7999999999998 187.1 509.3999999999998 191.7 516.3999999999999 191.7H538C540 191.7 541.3 192.7 541.9 194.7L542.6 197.3C543.3000000000001 200 541.3000000000001 202.4 538.7 202.4H505.8000000000001C501.7 202.4 498.9000000000001 200.3 498.0000000000001 196.4zM568.2 128L603.8000000000001 261.1C605.0000000000001 265.8 609.3000000000001 269 614.2 269H633.1C637.6 269 640.8000000000001 265 639.6 260.7L613.1 162.5C608 141.8 588.9 128 568.2 128" />
    <glyph glyph-name="creative-commons"
      unicode="&#xF25E;"
      horiz-adv-x="512" d=" M255.547 440C392.884 440 504 333.5610000000001 504 191.996C504 42.021 381.106 -56 255.562 -56C122.319 -56 8 53.443 8 191.996C8 323.175 113.486 440 255.547 440zM256.446 395.266C136.105 395.266 52.719 294.698 52.719 191.988C52.719 85.473 141.703 -10.406 256.446 -10.406C357.974 -10.406 459.2669999999999 69.036 459.2669999999999 191.981C459.266 306.754 367.4939999999999 395.266 256.4459999999999 395.266zM253.338 233.173L220.113 215.898C214.718 227.101 204.863 235.824 192.654 235.824C170.52 235.824 159.437 221.215 159.437 191.982C159.437 168.14 168.883 148.14 192.654 148.14C207.1229999999999 148.14 217.3069999999999 155.231 223.22 169.399L253.771 153.899C240.958 130 216.8839999999999 114.924 188.6699999999999 114.924C145.5079999999999 114.924 114.7109999999999 142.196 114.7109999999999 191.976C114.7109999999999 241.517 147.4169999999999 269.035 187.3449999999999 269.035C218.0589999999999 269.048 240.0459999999999 257.089 253.3379999999999 233.173zM396.382 233.173L363.607 215.898C358.09 227.38 348.283 235.824 335.707 235.824C313.565 235.824 302.482 221.215 302.482 191.982C302.482 168.076 311.984 148.14 335.707 148.14C350.161 148.14 360.352 155.231 366.25 169.399L397.25 153.899C383.887 130.03 359.799 114.924 332.164 114.924C288.725 114.924 258.205 141.912 258.205 191.976C258.205 241.499 290.903 269.035 330.831 269.035C361.5370000000001 269.048 383.4000000000001 257.089 396.382 233.173z" />
    <glyph glyph-name="css3-alt"
      unicode="&#xF38B;"
      horiz-adv-x="384" d=" M0 416L34.9 20.2L192 -32L349.1 20.2L384 416H0zM313.1 336L308.3 288.7L193 239.4L192.7 239.3H304.2L291.4 92.7000000000001L193.2 64.0000000000001L94.4 93.2000000000001L88 167.1H136.9L140.1 128.8L192.7 115.5L247.4 130.9L251.1 192.5L84.8 193V193.1L84.6 193L81 239.3L193.1 286L199.6 288.7H76.7L70.9 336H313.1z" />
    <glyph glyph-name="css3"
      unicode="&#xF13C;"
      horiz-adv-x="512" d=" M480 416L416 48L192.7 -32L0 48L19.6 142.8H101.6L93.6 102.2L210 57.8L344.1 102.2L362.9000000000001 199.3H29.5L45.5 281.3H379.2L389.7 334H56.3L72.6 416H480z" />
    <glyph glyph-name="cuttlefish"
      unicode="&#xF38C;"
      horiz-adv-x="440" d=" M344 142.5C326.5 110.9 286.6 88 248 88C191.4 88 144 135.4 144 192S191.4 296 248 296C286.6 296 326.5 273.1 344 241.5C357.7 292.4 385.7 334.8 431 359.3C385.7 408.9 320.5 440 248 440C111 440 0 329 0 192S111 -56 248 -56C320.5 -56 385.7 -24.9 431 24.7C385.7 49.2 357.7 91.6 344 142.5z" />
    </font>
</defs>
</svg>
